Дневной Дозор (2006) BDRip 1080p | Лицензия | Unrated

Reply to topic
 
Author Message

HardwareMining ®

Gender: Male

Longevity: 4 years 6 months

Posts: 603

Post 14-Feb-2024 17:09

[Quote]

Дневной Дозор
«Первый фильм года» Год выпуска: 2006
Жанр: фэнтези, боевик, триллер
Выпущено: Россия | Кинокомпания Таббак
Режиссер: Тимур Бекмамбетов
В ролях: Константин Хабенский, Мария Порошина, Владимир Меньшов, Галина Тюнина, Виктор Вержбицкий, Жанна Фриске, Дмитрий Мартынов, Валерий Золотухин, Алексей Чадов, Нуржуман Ихтымбаев
О фильме:
Ночью в подъезде своего дома убита молодая женщина. Убитая — Тёмная иная, а значит подозрение падает на Светлых. Гессер срочно собирает команду: обвинение в убийстве — серьезная проблема. Он должен понять, кто где был и чем занимался в указанное Тёмными время. Выясняется, что алиби отсутствует только у Городецкого.

Качество: BDRip 1080p
Видео: AVC, 1920x820 (2.35:1), 23,976 fps, 15.1 Mb/s (0.401 bit/pixel)
Аудио: русский, AC3, 5.1, 48 kHz, 640 kbps CBR
Продолжительность: 02:25:48
Перевод: Не требуется | Лицензия
Субтитры: Русские | Forced | сцена с Тамерланом

Скриншоты

MediaInfo

General
Unique ID : 184283439422774051461200277844150379896 (0x8AA3B30D71D50236AB2F16B01BEAE578)
Complete name : E:\GF\Dnevnoy.Dozor.2006.BDRip.1080p.Rip.by.HardwareMining.R.G.Generalfilm.mkv
Format : Matroska
Format version : Version 2
File size : 16.1 GiB
Duration : 2 h 25 min
Overall bit rate : 15.8 Mb/s
Frame rate : 23.976 FPS
Movie name : Dnevnoy.Dozor.2006.BDRip.1080p.Rip.by.HardwareMining.R.G.Generalfilm
Encoded date : 2024-02-14 08:57:11 UTC
Writing application : mkvmerge v5.0.1 ('Es ist Sommer') built on Oct 9 2011 11:55:43
Writing library : libebml v1.2.2 + libmatroska v1.3.0
Cover : Yes
Attachments : cover.png
Video
ID : 1
Format : AVC
Format/Info : Advanced Video Codec
Format profile : High@L4.1
Format settings : CABAC / 5 Ref Frames
Format settings, CABAC : Yes
Format settings, Reference frames : 5 frames
Muxing mode : Header stripping
Codec ID : V_MPEG4/ISO/AVC
Duration : 2 h 25 min
Bit rate : 15.1 Mb/s
Width : 1 920 pixels
Height : 820 pixels
Display aspect ratio : 2.35:1
Frame rate mode : Constant
Frame rate : 23.976 (24000/1001) FPS
Color space : YUV
Chroma subsampling : 4:2:0
Bit depth : 8 bits
Scan type : Progressive
Bits/(Pixel*Frame) : 0.401
Stream size : 15.1 GiB (94%)
Writing library : x264 core 148 r2638 7599210
Encoding settings : cabac=1 / ref=5 / deblock=1:-2:-1 / analyse=0x3:0x113 / me=umh / subme=10 / psy=1 / psy_rd=0.00:0.15 / mixed_ref=1 / me_range=32 / chroma_me=1 / trellis=2 / 8x8dct=1 / cqm=0 / deadzone=21,11 / fast_pskip=0 / chroma_qp_offset=-3 / threads=26 / lookahead_threads=2 / sliced_threads=0 / nr=0 / decimate=0 / interlaced=0 / bluray_compat=0 / constrained_intra=0 / bframes=4 / b_pyramid=2 / b_adapt=2 / b_bias=0 / direct=1 / weightb=1 / open_gop=0 / weightp=2 / keyint=240 / keyint_min=23 / scenecut=40 / intra_refresh=0 / rc_lookahead=40 / rc=2pass / mbtree=0 / bitrate=15136 / ratetol=1.0 / qcomp=0.65 / qpmin=0 / qpmax=69 / qpstep=4 / cplxblur=20.0 / qblur=0.5 / vbv_maxrate=50000 / vbv_bufsize=65500 / nal_hrd=none / filler=0 / ip_ratio=1.40 / pb_ratio=1.30 / aq=1:2.00
Language : English
Default : Yes
Forced : No
Audio
ID : 3
Format : AC-3
Format/Info : Audio Coding 3
Commercial name : Dolby Digital
Muxing mode : Header stripping
Codec ID : A_AC3
Duration : 2 h 25 min
Bit rate mode : Constant
Bit rate : 640 kb/s
Channel(s) : 6 channels
Channel layout : L R C LFE Ls Rs
Sampling rate : 48.0 kHz
Frame rate : 31.250 FPS (1536 SPF)
Compression mode : Lossy
Stream size : 667 MiB (4%)
Title : Dub | Лицензия
Language : Russian
Service kind : Complete Main
Default : Yes
Forced : No
Text
ID : 2
Format : UTF-8
Codec ID : S_TEXT/UTF8
Codec ID/Info : UTF-8 Plain Text
Title : Tamerlan
Language : Russian
Default : Yes
Forced : No
Релиз от:
[Profile] [PM]
Display posts:    
Reply to topic

Current time is: 24-Apr 10:09

All times are UTC + 3



You cannot post new topics in this forum
You cannot reply to topics in this forum
You cannot edit your posts in this forum
You cannot delete your posts in this forum
You cannot vote in polls in this forum
You cannot attach files in this forum
You cannot download files in this forum