Захват (2021) HDTVRip от Files-x

Reply to topic
 
Author Message

bond74 ®

Gender: Male

Longevity: 5 years 5 months

Posts: 2365

Post 21-Feb-2024 17:06

[Quote]

Захват
Год выпуска: 2021
Жанр: Боевик
Выпущено: Россия, Водолей
Режиссер: Александра Бутько
В ролях: Павел Трубинер, Игорь Лифанов, Андрей Носков, Юлия Галкина, Вера Неустроева
О фильме: Спецназовец в отставке Платонов работает спортивным тренером в пансионате и изо всех сил старается привыкнуть к тихой жизни без войны. Но многолетняя служба в горячих точках так просто его не отпускает: каждую ночь ему снится Ближний Восток и полные ужаса глаза девушки, которую когда-то ему не удалось спасти. Встретить Новый год и от души повеселиться в пансионат приезжают гости и знаменитые артисты. У Платонова свой праздник: бывшая жена наконец соглашается привезти к нему 11-летнюю дочь Олю на каникулы. В самый разгар веселья на пансионат нападает банда головорезов и берет всех отдыхающих в заложники. Платонову чудом удается скрыться, но у бандитов остается Оля, и он возвращается, чтобы спасти дочь.
Качество:HDTVRip
Видео: XviD, ~ 1756 Кбит/с, 720x400, 25 кадр/с
Аудио: AC3, 2 ch, 192 Кбит/с
Продолжительность: 01:15:22
Перевод: Не требуется
Cубтитры: Нет

Скриншоты




MediaInfo

Общее
Полное имя : D:\Zahvat.2021.HDTVRip.Files-x.avi
Формат : AVI
Формат/Информация : Audio Video Interleave
Настройки формата : BitmapInfoHeader / WaveFormatEx
Размер файла : 1,03 Гбайт
Продолжительность : 1 ч. 15 м.
Общий поток : 1 957 Кбит/сек
Частота кадров : 25,000 кадров/сек
Программа кодирования : VirtualDubMod 1.5.10.3 | www.virtualdub-fr.org || (build 2550/release)
Библиотека кодирования : VirtualDubMod build 2550/release
Видео
Идентификатор : 0
Формат : MPEG-4 Visual
Профиль формата : Advanced Simple@L5
Настройки формата : BVOP1 / Custom Matrix
Параметр BVOP формата : 1
Параметр QPel формата : Нет
Параметр GMC формата : Без точки перехода
Параметр матрицы формата : Выборочная
Идентификатор кодека : XVID
Идентификатор кодека/Подсказка : XviD
Продолжительность : 1 ч. 15 м.
Битрейт : 1 756 Кбит/сек
Ширина : 720 пикселей
Высота : 400 пикселей
Соотношение сторон : 16:9
Частота кадров : 25,000 кадров/сек
Цветовое пространство : YUV
Субдискретизация насыщенности : 4:2:0
Битовая глубина : 8 бит
Тип развёртки : Прогрессивная
Метод сжатия : С потерями
Бит/(Пиксели*Кадры) : 0.244
Размер потока : 947 Мбайт (90%)
Библиотека кодирования : XviD 73
Аудио
Идентификатор : 1
Формат : AC-3
Формат/Информация : Audio Coding 3
Коммерческое название : Dolby Digital
Идентификатор кодека : 2000
Продолжительность : 1 ч. 15 м.
Вид битрейта : Постоянный
Битрейт : 192 Кбит/сек
Каналы : 2 канала
Channel layout : L R
Частота : 48,0 КГц
Частота кадров : 31,250 кадров/сек (1536 SPF)
Метод сжатия : С потерями
Размер потока : 104 Мбайт (10%)
Выравнивание : Разделение по промежуткам
Продолжительность промежутка : 40 мс. (1,00 видеокадр)
Время предзагрузки промежутка : 500 мс.
Service kind : Complete Main
Релиз от:

Release was prepared by RG Files-x

Related releases "Захват (2021)" (1):
Added Topic title Size
21 Feb 24  Захват (2021) HDTVRip-AVC от Files-х 1.06 GB
Find all related releases Захват (2021)
[Profile] [PM]
Display posts:    
Reply to topic

Current time is: 24-Apr 10:12

All times are UTC + 3



You cannot post new topics in this forum
You cannot reply to topics in this forum
You cannot edit your posts in this forum
You cannot delete your posts in this forum
You cannot vote in polls in this forum
You cannot attach files in this forum
You cannot download files in this forum