Маска [5 сезон: 7 выпуск] (2024) HDTV 1080p от Files-x

Reply to topic
 
Author Message

Nicodem ®

Gender: Male

Longevity: 5 years 5 months

Posts: 1423

Post 31-Mar-2024 22:15

[Quote]

Маска
Год выпуска: 2024
Жанр: ТВ-шоу, музыка
Выпущено: Россия, Кинокомпания "ВайТ Медиа"
Ведущие: Вячеслав Макаров
Жюри: Филипп Киркоров, Валерия, Тимур Родригез, Регина Тодоренко, Александр Ревва
О фильме: На НТВ — премьера пятого, юбилейного сезона главного шоу страны "Маска". Традиционно одной из главных интриг нового сезона остаются названия масок, под которыми будут скрываться популярные представители музыки, кино, телевидения, спорта и интернета. Главными героями юбилейного сезона станут: Акула, Арлекин, Бабочка, Водяной, Горилла, Енот, Змей Горыныч, Кактус, Кот, Кукуруза, Матрёшка, Мотылёк, Перец и Щенок. Юбилейный сезон будет невероятным — таким, каких еще не было! Поэтому количество регалий, которые есть у участников и которые традиционно раскрывались за несколько недель до премьеры, в этом году останутся в секрете, потому что это помогает зрителям «вычислить» главных героев. В этом году об участниках можно сказать, что они суперпопулярны, в их общей кинематографической копилке – около 130 ролей в кино, сериалах, на театральной сцене и более 10 озвученных мультипликационных героев, а в музыкальной — около 60 позиций, но что это — студийные альбомы или саундтреки — останется в секрете! Разгадать самую охраняемую тайну российского телевидения и найти ответ на главный вопрос последних лет — "Кто скрывается под маской?" — предстоит звездным членам жюри. Ведущим проекта традиционно станет Вячеслав Макаров.
Качество: HDTV 1080p
Видео: MPEG-4 AVC, ~ 6507 Кбит/с, 1920x1080, 25 кадр/с
Аудио: MP2, 2 ch, 192 Кбит/с
Продолжительность: 02:52:23
Перевод: Не требуется
Субтитры: нет

Скриншоты



MediaInfo

General
ID : 1 (0x1)
Complete name : C:Маска.s05.E07.(2024).HDTV.(1080p).by.Nicodem.Files-x (Эфир от 31.03.2024).ts
Format : MPEG-TS
File size : 8.49 GiB
Duration : 2h 52mn
Overall bit rate : 7 050 Kbps
Maximum Overall bit rate : 35.5 Mbps
Video
ID : 4113 (0x1011)
Menu ID : 1 (0x1)
Format : AVC
Format/Info : Advanced Video Codec
Format profile : High@L4.1
Format settings, CABAC : No
Format settings, ReFrames : 3 frames
Codec ID : 27
Duration : 2h 52mn
Bit rate mode : Variable
Bit rate : 6 507 Kbps
Maximum bit rate : 40.0 Mbps
Width : 1 920 pixels
Height : 1 080 pixels
Display aspect ratio : 16:9
Frame rate : 25.000 fps
Color space : YUV
Chroma subsampling : 4:2:0
Bit depth : 8 bits
Scan type : Progressive
Bits/(Pixel*Frame) : 0.126
Stream size : 7.84 GiB (92%)
Language : English
Audio
ID : 4352 (0x1100)
Menu ID : 1 (0x1)
Format : MPEG Audio
Format version : Version 1
Format profile : Layer 2
Codec ID : 4
Duration : 2h 52mn
Bit rate mode : Constant
Bit rate : 192 Kbps
Channel(s) : 2 channels
Sampling rate : 48.0 KHz
Compression mode : Lossy
Stream size : 237 MiB (3%)

Раздача ведётся путём добавления новых серий

Внимание! Раздача ведётся путём добавления новых серий; при каждом добавлении создаётся новый торрент.
Чтобы начать докачку новой серии, пользователям необходимо сделать следующее:
1. Остановить скачивание;
2. Удалить старый торрент у себя из клиента (старые серии удалять не надо);
3. Скачать новый торрент и запустить его у себя в клиенте вместо старого, при этом указать клиенту путь в старую папку куда и должно происходить скачивание новых серий. Ваш клиент при этом должен произвести хеширование (проверку) старой папки и будет докачивать только те серии, которых у вас ещё нет. Старые серии при этом не удаляются, а продолжают раздаваться! Eсли вы уже удалили старые серии, то предотвратить повторную закачку старых серий можно, отжав галочку в соответствующих местах при запуске нового торрента.
Релиз от:

Release was prepared by RG Files-x

[Profile] [PM]
Display posts:    
Reply to topic

Current time is: 24-Apr 08:59

All times are UTC + 3



You cannot post new topics in this forum
You cannot reply to topics in this forum
You cannot edit your posts in this forum
You cannot delete your posts in this forum
You cannot vote in polls in this forum
You cannot attach files in this forum
You cannot download files in this forum