Тайм-аут (2023) WEBRip 1080p

Reply to topic
 
Author Message

ltctgnbrjy ®

Longevity: 5 years 5 months

Posts: 6

Post 08-Apr-2024 14:04

[Quote]

Тайм-аут- Год выпуска: 2023
Жанр: Комедия
Выпущено: Россия, «Галактика»
Режиссер: Владимир Скворцов
В ролях: Наталья Щукина, Павел Майков, Анатолий Кот, Евгения Каверау, Феликс Мурзабеков, Галина Сергеева, Павел Мамонов, Надежда Серая, Любовь Матюшина, Александр Карнаушкин
О фильме: Женщина-соцработник, мать-одиночка за 40, поддерживает свою однообразную жизнь аффирмациями и иллюзией, что в нее через соцсети влюблен популярный лет двадцать пять назад певец-бард. Случайно узнав, что он ее даже не знает, она предпринимает попытку изменить свою жизнь, вернувшись к бывшему мужу, поменяв работу. Но этого оказывается недостаточно — люди не меняются.

Возраст: 18+ (зрителям, достигшим 18 лет. запрещено для детей)
Качество: WEBRip 1080p
Видео: AVC/H.264, ~4500 kbps, 1920x816, 25.00 fps, 0.115 bit/pixel
Аудио: AC3, 2 ch, 192 Kbps
Продолжительность: 01:55:28
Перевод: Не требуется [Русский]
Cубтитры: Отсутствуют

Скриншоты

MediaInfo

General
Unique ID : 88993224117728236123702230819770105161 (0x42F378B560735176D75529CA4B467D49)
Complete name : Тайм-аут_2023_1080p.mkv
Format : Matroska
Format version : Version 4
File size : 3.76 GiB
Duration : 1 h 55 min
Overall bit rate mode : Variable
Overall bit rate : 4 662 kb/s
Frame rate : 25.000 FPS
Encoded date : 2024-04-08 09:20:54 UTC
Writing application : mkvmerge v77.0 ('Elemental') 64-bit
Writing library : libebml v1.4.4 + libmatroska v1.7.1
Video
ID : 1
Format : AVC
Format/Info : Advanced Video Codec
Format profile : High@L4.1
Format settings : CABAC / 4 Ref Frames
Format settings, CABAC : Yes
Format settings, Reference : 4 frames
Codec ID : V_MPEG4/ISO/AVC
Duration : 1 h 55 min
Bit rate mode : Variable
Bit rate : 4 500 kb/s
Width : 1 920 pixels
Height : 816 pixels
Display aspect ratio : 2.40:1
Frame rate mode : Constant
Frame rate : 25.000 FPS
Color space : YUV
Chroma subsampling : 4:2:0
Bit depth : 8 bits
Scan type : Progressive
Bits/(Pixel*Frame) : 0.115
Stream size : 3.60 GiB (96%)
Language : English
Default : Yes
Forced : No
Color range : Limited
Color primaries : BT.709
Transfer characteristics : BT.709
Matrix coefficients : BT.709
Audio
ID : 2
Format : AC-3
Format/Info : Audio Coding 3
Commercial name : Dolby Digital
Codec ID : A_AC3
Duration : 1 h 55 min
Bit rate mode : Constant
Bit rate : 192 kb/s
Channel(s) : 2 channels
Channel layout : L R
Sampling rate : 48.0 kHz
Frame rate : 31.250 FPS (1536 SPF)
Compression mode : Lossy
Stream size : 159 MiB (4%)
Title : AC3
Language : Russian
Service kind : Complete Main
Default : Yes
Forced : No
[Profile] [PM]
Display posts:    
Reply to topic

Current time is: 27-May 19:46

All times are UTC + 3



You cannot post new topics in this forum
You cannot reply to topics in this forum
You cannot edit your posts in this forum
You cannot delete your posts in this forum
You cannot vote in polls in this forum
You cannot attach files in this forum
You cannot download files in this forum