Судьба на двоих [1-4 серии из 4] (2024) WEBRip 1080p

Reply to topic
 
Author Message

ltctgnbrjy ®

Longevity: 5 years 5 months

Posts: 6

Post 13-Apr-2024 16:25

[Quote]

Судьба на двоих- Год выпуска: 2024
Жанр: Мелодрама
Выпущено: Россия, Кинокомпания "Авва-Фильм"
Режиссер: Руслан Бальтцер
В ролях: Эрика Булатая, Родион Галюченко, Сергей Борисов, Мария Глазкова, Христина Блохина, Татьяна Таушева, Татьяна Филатова, Александр Червов, Светлана Авдина, Ольга Торощина
О фильме: Марина живет самой обычной жизнью: днем работает на швейной фабрике, а по вечерам ухаживает за пожилым отцом. Ей приходится браться за любые подработки, чтобы хоть как-то свести концы с концами. Неожиданно судьба сводит ее с солидным мужчиной на дорогом авто. Влюбившись с первого взгляда в Марину, он добивается ее и дарит настоящую сказку: дорогие рестораны, подарки, выходные в шикарном загородном доме. Но идеальную картинку рушит череда таинственных звонков, заставляющих Андрея каждый раз исчезать и оставлять Марину в одиночестве. Вскоре выясняется, что Андрей - обычный водитель. Марина разрывает с ним отношения. И дело совсем не в корысти, а в ее принципах: она не терпит вранья. Теперь перед Андреем стоит сложная задача: не только вернуть доверие Марины, но и помешать своему шефу-бабнику, который проявляет к Марине интерес.

Качество: WEBRip 1080p
Видео: MPEG-4 AVC, ~ 3777 Кбит/с, 1920x1080, 25 кадр/с
Аудио: AAC, 2 ch, 192 Кбит/с
Продолжительность: 4 х ~ 00:47:00
Перевод: Не требуется [Русский]
Cубтитры: Отсутствуют

Скриншоты

MediaInfo

General
Unique ID : 87037946233868818225643687370292799845 (0x417AE610DFC118E3568C9C0FC2D92965)
Complete name : Судьба на двоих S01_E02 2024 1080p.mkv
Format : Matroska
Format version : Version 4
File size : 1.35 GiB
Duration : 49 min 54 s
Overall bit rate : 3 977 kb/s
Frame rate : 25.000 FPS
Encoded date : 2024-04-13 09:41:17 UTC
Writing application : mkvmerge v77.0 ('Elemental') 64-bit
Writing library : libebml v1.4.4 + libmatroska v1.7.1
Video
ID : 1
Format : AVC
Format/Info : Advanced Video Codec
Format profile : High@L4.1
Format settings : CABAC / 4 Ref Frames
Format settings, CABAC : Yes
Format settings, Reference : 4 frames
Format settings, GOP : M=4, N=50
Codec ID : V_MPEG4/ISO/AVC
Duration : 49 min 54 s
Bit rate : 3 777 kb/s
Width : 1 920 pixels
Height : 1 080 pixels
Display aspect ratio : 16:9
Active Format Description : Full frame 16:9 image
Frame rate mode : Constant
Frame rate : 25.000 FPS
Standard : PAL
Color space : YUV
Chroma subsampling : 4:2:0
Bit depth : 8 bits
Scan type : Progressive
Bits/(Pixel*Frame) : 0.071
Stream size : 1.28 GiB (95%)
Default : Yes
Forced : No
Color range : Limited
Color primaries : BT.709
Transfer characteristics : BT.709
Matrix coefficients : BT.709
Audio
ID : 2
Format : AAC LC
Format/Info : Advanced Audio Codec Low Complexity
Codec ID : A_AAC-2
Duration : 49 min 54 s
Bit rate : 192 kb/s
Channel(s) : 2 channels
Channel layout : L R
Sampling rate : 48.0 kHz
Frame rate : 46.875 FPS (1024 SPF)
Compression mode : Lossy
Stream size : 68.5 MiB (5%)
Default : Yes
Forced : No

Внимание! Раздача ведётся путём добавления новых серий

Раздача ведётся путём добавления новых серий, при каждом добавлении создаётся новый торрент. Чтобы начать докачку новой серии, пользователям необходимо сделать следующее:
- Остановить скачивание.
- Удалить старый торрент у себя из клиента (старые серии удалять не надо).
- Скачать новый торрент и запустить его у себя в клиенте вместо старого, при этом указать клиенту путь в старую папку куда и должно происходить скачивание новых серий.
Ваш клиент при этом должен произвести хеширование (проверку) старой папки (если не производит сам - помогите ему сделать это), и будет докачивать только те серии которых у вас ещё нет. Старые серии при этом не удаляются, а продолжают раздаваться!
Релиз от:
[Profile] [PM]
Display posts:    
Reply to topic

Current time is: 27-May 18:14

All times are UTC + 3



You cannot post new topics in this forum
You cannot reply to topics in this forum
You cannot edit your posts in this forum
You cannot delete your posts in this forum
You cannot vote in polls in this forum
You cannot attach files in this forum
You cannot download files in this forum