Поедем с тобой в Макао (2023) WEB-DLRip от Files-х

Reply to topic
 
Author Message

patriot67 ®

Gender: Male

Longevity: 4 years 6 months

Posts: 302

Post 19-Apr-2024 20:05

[Quote]

Поедем с тобой в Макао Год выпуска: 2023
Жанр: Драма
Выпущено: Россия, Кинокомпания "Фрут Тайм"
Режиссер: Роман Михайлов
В ролях: Роман Михайлов, Олег Чугунов, Леся Франчук, Фёдор Лавров, Маша Мацель, Вячеслав Машнов, Олег Рязанцев, Анна Завтур, Илларион Маров, Иван Ивашов, Варвара Павлова, Юлия Марченко, Виталий Коваленко, Евгений Алёхин, Павел Додонов, Руслан Азимов
О фильме: Студент юрфака Олег, живущий с матерью и отчимом, узнает о том, что его отец вышел из тюрьмы и хочет с ним повидаться. Встретившись с папой, Олег обнаруживает что, тот — страстный любитель азартных игр. Так молодой человек погружается в мир большого покера, подпольных казино и исследовательских лабораторий. Став частью этой теневой реальности, Олег заражается игровой зависимостью.

Качество: WEB-DLRip
Видео: XviD, ~ 1957 Кбит/с, 720x304, 25 кадр/с
Аудио: AC3, 6 ch, 384 Кбит/с
Продолжительность: 01:19:38
Перевод: Не требуется
Cубтитры: Нет

Скриншоты


MediaInfo

General
Complete name : D:\Poedem.s.toboy.v.Makao.2023.WEB-DLRip.Files-x.avi
Format : AVI
Format/Info : Audio Video Interleave
Format settings : BitmapInfoHeader / WaveFormatEx
File size : 1.31 GiB
Duration : 1 h 19 min
Overall bit rate : 2 351 kb/s
Frame rate : 25.000 FPS
Writing application : VirtualDubMod 1.5.10.3 | www.virtualdub-fr.org || (build 2550/release)
Writing library : VirtualDubMod build 2550/release
Video
ID : 0
Format : MPEG-4 Visual
Format profile : Advanced Simple@L5
Format settings : BVOP1 / Custom Matrix
Format settings, BVOP : 1
Format settings, QPel : No
Format settings, GMC : No warppoints
Format settings, Matrix : Custom
Codec ID : XVID
Codec ID/Hint : XviD
Duration : 1 h 19 min
Bit rate : 1 957 kb/s
Width : 720 pixels
Height : 304 pixels
Display aspect ratio : 2.35:1
Frame rate : 25.000 FPS
Color space : YUV
Chroma subsampling : 4:2:0
Bit depth : 8 bits
Scan type : Progressive
Compression mode : Lossy
Bits/(Pixel*Frame) : 0.358
Stream size : 1.09 GiB (83%)
Writing library : XviD 73
Audio
ID : 1
Format : AC-3
Format/Info : Audio Coding 3
Commercial name : Dolby Digital
Codec ID : 2000
Duration : 1 h 19 min
Bit rate mode : Constant
Bit rate : 384 kb/s
Channel(s) : 6 channels
Channel layout : L R C LFE Ls Rs
Sampling rate : 48.0 kHz
Frame rate : 31.250 FPS (1536 SPF)
Compression mode : Lossy
Stream size : 219 MiB (16%)
Alignment : Split across interleaves
Interleave, duration : 40 ms (1.00 video frame)
Interleave, preload duration : 500 ms
Service kind : Complete Main
Релиз от:

Release was prepared by RG Files-x

[Profile] [PM]
Display posts:    
Reply to topic

Current time is: 27-May 19:05

All times are UTC + 3



You cannot post new topics in this forum
You cannot reply to topics in this forum
You cannot edit your posts in this forum
You cannot delete your posts in this forum
You cannot vote in polls in this forum
You cannot attach files in this forum
You cannot download files in this forum