Пять минут тишины. Возвращение [2 сезон: 1-24 серии из 24] (2018) WEBRip от GeneralFilm

Reply to topic
 
Author Message

vsobbol ®

Gender: Male

Longevity: 5 years 8 months

Posts: 761

Location: Донецк

Post 26-Feb-2019 00:22

[Quote]

Пять минут тишины. Возвращение
Год выпуска: 2018
Жанр: Приключения, детектив
Выпущено: Россия, ООО «ПРИОР Продакшн» при участии ООО «Студия Грин Фильм»
Режиссер: Алексей Праздников
В ролях: Игорь Лифанов, Роман Курцын, Анна Пескова, Константин Воробьёв, Артур Ваха, Анастасия Стежко, Екатерина Головина, Александр Конев, Александр Иванов, Владислав Демьяненко
О фильме: Александр Грек, вернувшись после стажировки в Москву и узнав, что его невеста Лина, с которой он собирался окончательно расстаться, беременна, принимает решение жениться на матери своего ребенка. Однако остаться в столице у него не получается: ему уготована служба в отдалённом районе, и он просит направить его назад, в Карелию. Лина решает ехать с ним и там играть свадьбу. Вернувшись в Карелию, Греку предстоит пережить объяснение с Таней, которую он любит, и с Гиреевым, который зол на молодого человека, заставившего страдать его дочь....

Качество: WEBRip
Видео: XviD build 73, 656x368 (16:9), 25.000 fps, ~ 930 Kbps (~ 0.155 bit/pixel)
Аудио: 48.0 kHz, MP3, 2/0 ch, 128 kbps
Продолжительность: 24 x ~ 00:49:00
Перевод: Не требуется
Cубтитры: нет

Скриншоты


MediaInfo

General
Complete name : D:\Razdachi\Pjatj.Minut.Tishiny.S02.2017.XviD.WEBRip.GeneralFilm\Pjatj.Minut.Tishiny.01.avi
Format : AVI
Format/Info : Audio Video Interleave
File size : 373 MiB
Duration : 48 min 44 s
Overall bit rate : 1 070 kb/s
Writing application : VirtualDubMod 1.5.10.3 | www.virtualdub-fr.org || (build 2550/release)
Writing library : VirtualDubMod build 2550/release
Video
ID : 0
Format : MPEG-4 Visual
Format profile : Advanced Simple@L5
Format settings : BVOP1 / Custom Matrix
Format settings, BVOP : 1
Format settings, QPel : No
Format settings, GMC : No warppoints
Format settings, Matrix : Custom
Codec ID : XVID
Codec ID/Hint : XviD
Duration : 48 min 44 s
Bit rate : 932 kb/s
Width : 656 pixels
Height : 368 pixels
Display aspect ratio : 16:9
Frame rate : 25.000 FPS
Color space : YUV
Chroma subsampling : 4:2:0
Bit depth : 8 bits
Scan type : Progressive
Compression mode : Lossy
Bits/(Pixel*Frame) : 0.154
Stream size : 325 MiB (87%)
Writing library : XviD 73
Audio
ID : 1
Format : MPEG Audio
Format version : Version 1
Format profile : Layer 3
Codec ID : 55
Codec ID/Hint : MP3
Duration : 48 min 44 s
Bit rate mode : Constant
Bit rate : 128 kb/s
Channel(s) : 2 channels
Sampling rate : 48.0 kHz
Frame rate : 41.667 FPS (1152 SPF)
Compression mode : Lossy
Stream size : 44.6 MiB (12%)
Alignment : Aligned on interleaves
Interleave, duration : 40 ms (1.00 video frame)
Interleave, preload duratio : 504 ms
Writing library : LAME3.99r
Encoding settings : -m s -V 4 -q 0 -lowpass 17 -b 128
Релиз от:
Related releases "Пять минут тишины" (10):
Added Topic title Size
10 Apr 24  Пять минут тишины. Море и горы [5 сезон: 1-24 серии из 24] (2023) WEBRip от Generalfilm | КПК 4.37 GB
31 Mar 24  Пять минут тишины. Море и горы [5 сезон: 1-24 серии из 24] (2023) WEBRip-AVC от Files-x 14.73 GB
31 Mar 24  Пять минут тишины. Море и горы [5 сезон: 1-24 серии из 24] (2023) WEBRip 720p от Files-x 26.09 GB
31 Mar 24  Пять минут тишины. Море и горы [5 сезон: 1-24 серии из 24] (2023) HDTVRip от Files-x 14.71 GB
11 Jan 22  Пять минут тишины. Симбирские морозы [4 сезон: 1-12 серии из 12] (2021) WEBRip от Generalfilm | КПК 2 2.22 GB
17 Dec 21  Пять минут тишины. Симбирские морозы [4 сезон: 1-12 серии из 12] (2021) WEBRip от Files-x 7.5 GB
17 Dec 21  Пять минут тишины. Симбирские морозы [4 сезон: 1-12 серии из 12] (2021) WEBRip-AVC от Files-x 9.14 GB
17 Jun 21  Пять минут тишины. Новые горизонты [3 сезон: 1-12 серии из 12] (2020) WEBRip от Generalfilm | КПК 2 2.17 GB
8 May 21  Пять минут тишины. Новые горизонты [3 сезон: 1-12 серии из 12] (2020) WEBRip-AVC от Files-х 8.94 GB
8 May 21  Пять минут тишины. Новые горизонты [3 сезон: 1-12 серии из 12] (2020) WEBRip от Files-x 7.35 GB
Find all related releases Пять минут тишины
[Profile] [PM]

KRIEVS2011

Gender: Male

Longevity: 5 years 5 months

Posts: 647

Location: ☭☭☭ « Латвия - Latvija » « Рига - Riga » ☭☭☭

Post 19-Feb-2023 05:48 (after 3 years 11 months)

[Quote]

Отличный Сериал
Раздающему...
Большое Спасибо !!!
[Profile] [PM]
Display posts:    
Reply to topic

Current time is: 19-Jul 12:45

All times are UTC + 3



You cannot post new topics in this forum
You cannot reply to topics in this forum
You cannot edit your posts in this forum
You cannot delete your posts in this forum
You cannot vote in polls in this forum
You cannot attach files in this forum
You cannot download files in this forum