Мышеловка / 4x4 (2019) WEB-DLRip от GeneralFilm | iTunes

Reply to topic
 
Author Message

vsobbol ®

Gender: Male

Longevity: 1 year 3 months

Posts: 442

Location: Донецк

Post 20-Aug-2019 20:28

[Quote]

Мышеловка / 4x4
Информация о фильме
Название: Мышеловка
Оригинальное название: 4x4
Год выпуска: 2019
Жанр: Триллер, криминал
Выпущено: Аргентина, Испания, Television Abierta S.A., Mediaproducction S.L.U.
Режиссер: Мариано Кон
В ролях: Питер Ланзани, Луис Брандони, Дади Бриева, Ноэлия Кастаньо, Густаво Родригес и др.
О фильме: Для Сиро Бермудеса, промышлявшего воровством, открыть новенький внедорожник, припаркованный на тихой улице, — как два пальца об асфальт. Выломать компьютер, пошарить в бардачке — дело одной минуты. Помочиться на заднее сиденье, чтобы дополнительно отравить жизнь хозяину, — его фирменный стиль. Но вот дальше случилось невероятное: двери заблокировались, и Сиро оказался запертым в бронированной машине с пуленепробиваемыми и наглухо тонированными стеклами. Орать и пытаться вырваться бесполезно — никто не увидит и не услышит. Телефон разряжен. 40-градусная жара. Страх, истерика, отчаяние. А кошмар Сиро только начинался…

Качество: WEB-DLRip
Видео: XviD build 73, 720x304 (2.37:1), 24.000 fps, 995 Kbps (0.189 bit/pixel)
Аудио: 48.0 kHz, MP3, 2/0 ch, 128 kbps
Продолжительность: 01:31:59
Перевод: Дублированный | iTunes
Cубтитры: нет

Скриншоты

MediaInfo

General
Complete name : D:\Razdachi\Myshelovka.2019.WEB-DLRip.GeneralFilm.avi
Format : AVI
Format/Info : Audio Video Interleave
File size : 745 MiB
Duration : 1 h 31 min
Overall bit rate : 1 132 kb/s
Writing application : VirtualDubMod 1.5.10.3 | www.virtualdub-fr.org || (build 2550/release)
Writing library : VirtualDubMod build 2550/release
Video
ID : 0
Format : MPEG-4 Visual
Format profile : Advanced Simple@L5
Format settings : BVOP1 / Custom Matrix
Format settings, BVOP : 1
Format settings, QPel : No
Format settings, GMC : No warppoints
Format settings, Matrix : Custom
Codec ID : XVID
Codec ID/Hint : XviD
Duration : 1 h 31 min
Bit rate : 995 kb/s
Width : 720 pixels
Height : 304 pixels
Display aspect ratio : 2.35:1
Frame rate : 24.000 FPS
Color space : YUV
Chroma subsampling : 4:2:0
Bit depth : 8 bits
Scan type : Progressive
Compression mode : Lossy
Bits/(Pixel*Frame) : 0.189
Stream size : 655 MiB (88%)
Writing library : XviD 73
Audio
ID : 1
Format : MPEG Audio
Format version : Version 1
Format profile : Layer 3
Codec ID : 55
Codec ID/Hint : MP3
Duration : 1 h 31 min
Bit rate mode : Constant
Bit rate : 128 kb/s
Channel(s) : 2 channels
Sampling rate : 48.0 kHz
Frame rate : 41.667 FPS (1152 SPF)
Compression mode : Lossy
Stream size : 84.2 MiB (11%)
Alignment : Aligned on interleaves
Interleave, duration : 42 ms (1.00 video frame)
Interleave, preload duratio : 504 ms
Writing library : LAME3.99r
Encoding settings : -m s -V 4 -q 2 -lowpass 17 -b 128
Релиз от:
[Profile] [PM]
Display posts:    
Reply to topic

Current time is: 20-Feb 09:16

All times are UTC + 3



You cannot post new topics in this forum
You cannot reply to topics in this forum
You cannot edit your posts in this forum
You cannot delete your posts in this forum
You cannot vote in polls in this forum
You cannot attach files in this forum
You cannot download files in this forum