Discovery. Выжить после селфи / Still Alive [1-6 серии из 6] (2015) HDTVRip 720p от GeneralFilm

Reply to topic
 
Author Message

Starik60 ®

Gender: Male

Longevity: 11 months 3 days

Posts: 171

Location: Москва, Россия

Post 29-Nov-2018 16:19

[Quote]

Выжить после селфи / Still Alive
Год выпуска: 2015
Жанр: Документальный, приключения
Выпущено: США, Discovery Communications, LLC.
О фильме: Еще десять лет назад YouTube, GoPro, смартфоны и социальные сети были для нас в новинку, но с тех пор многое изменилось. Теперь мы можем взглянуть на мир через объектив камеры и вновь пережить самые памятные события в жизни. Новая программа «Выжить после селфи» расскажет об уникальных историях выживания, снятые людьми, которые побывали на грани жизни и смерти и сняли это на камеру. Под снежной лавиной, в подземной пещере, в открытом море и водах бурной реки, в лапах медведя или в пасти акулы – с каждым из участников программы в тот момент был маленький цифровой свидетель, который и запечатлел судьбоносные моменты. И теперь у нас есть возможность оказаться на месте каждого из героев программы и их глазами увидеть всё, что произошло.
Качество: HDTVRip 720p
Видео: MPEG-4 AVC, ~ 4000 Кбит/с, 1280x720
Аудио: MP2, 2 ch, 192 Кбит/с
Продолжительность: 6 x ~ 00:44:00
Перевод: Профессиональный (одноголосый, закадровый)

Скриншоты



MediaInfo

General
Unique ID : 92013835680311206395356043439358473706 (0x4539385B5271752921670AD32A9DF5EA)
Complete name : D:\Раздачи\Выжить после селфи 720p GeneralFilm\01 Выжить после селфи.mkv
Format : Matroska
Format version : Version 2
File size : 1.28 GiB
Duration : 43 min 57 s
Overall bit rate mode : Variable
Overall bit rate : 4 171 kb/s
Writing application : Lavf54.63.104
Writing library : Lavf54.63.104
Video
ID : 1
Format : AVC
Format/Info : Advanced Video Codec
Format profile : High@L4.1
Format settings : CABAC / 3 Ref Frames
Format settings, CABAC : Yes
Format settings, ReFrames : 3 frames
Codec ID : V_MPEG4/ISO/AVC
Duration : 43 min 57 s
Bit rate mode : Variable
Bit rate : 3 896 kb/s
Maximum bit rate : 4 000 kb/s
Width : 1 280 pixels
Height : 720 pixels
Display aspect ratio : 16:9
Frame rate mode : Constant
Frame rate : 25.000 FPS
Standard : PAL
Color space : YUV
Chroma subsampling : 4:2:0
Bit depth : 8 bits
Scan type : Progressive
Bits/(Pixel*Frame) : 0.169
Stream size : 1.20 GiB (93%)
Default : No
Forced : No
Color range : Limited
Color primaries : BT.709
Transfer characteristics : BT.709
Matrix coefficients : BT.709
Audio
ID : 2
Format : MPEG Audio
Format version : Version 1
Format profile : Layer 2
Codec ID : A_MPEG/L2
Codec ID/Hint : MP2
Duration : 43 min 57 s
Bit rate mode : Constant
Bit rate : 192 kb/s
Channel(s) : 2 channels
Sampling rate : 48.0 kHz
Compression mode : Lossy
Stream size : 60.4 MiB (5%)
Language : Russian
Default : Yes
Forced : No
Благодарю за отличный постер ValkiriaGF
Релиз от:
[Profile] [PM]
Display posts:    
Reply to topic

Current time is: 15-Oct 22:39

All times are UTC + 3



You cannot post new topics in this forum
You cannot reply to topics in this forum
You cannot edit your posts in this forum
You cannot delete your posts in this forum
You cannot vote in polls in this forum
You cannot attach files in this forum
You cannot download files in this forum