Дитя погоды / Tenki no Ko (Weathering With You) (2019) BDRip 1080p | iTunes

Reply to topic
 
Author Message

Monk ®

Gender: Male

Longevity: 1 year 7 months

Posts: 12344

Location: Казань

Post 21-May-2020 01:41

[Quote]

Дитя погоды / Tenki no Ko (Weathering With You) Год выпуска: 2019
Жанр: Драма, фэнтези, романтика, полнометражный
Выпущено: Япония, "Weathering With You" Film Partners, CoMix Wave Films, Kadokawa, Lawson Entertainment Story Inc., TOHO, voque ting
Режиссер: Макото Синкай
В ролях: Котаро Дайго, Нана Мори, Сюн Огури, Цубаса Хонда, Тиэко Байсё, Кана Ханадзава, Сэй Хирайдзуми, Кана Итиносэ, Юки Кадзи, Рюносукэ Камики
О фильме: Старшеклассник Ходака Морисима переезжает со своего родного острова в Токио, где у парня сразу кончаются деньги. Когда он устраивается на подработку в журнал, пишущий о сверхъестественном, погода портится, и начинаются бесконечные дожди. Однажды Ходака знакомится с девушкой по имени Хина Амано, которая обладает удивительной способностью разгонять тучи и останавливать дождь.
Качество: BDRip 1080p
Видео: MPEG-4 AVC, 8.5 Mбит/с, 1920x1080
Аудио: Русский, украинский (AC3, 6 ch, 384 Кбит/с), японский (DTS-HD, 6 ch, 768 Кбит/с)
Продолжительность: 01:52:43
Перевод: Дублированный [iTunes], профессиональный многоголосый [NewComers]
Субтитры: Русские (софтсаб)

Скриншоты



MediaInfo

General
Unique ID : 236426744179145407591952434029440997427 (0xB1DE2276E7E777EF98D81764E60F1833)
Complete name : Anime FullHD[Deadmau- RAWS] Weathering.with.You.2019.BDRip.1080p.Deadmauvlad.mkv
Format : Matroska
Format version : Version 2
File size : 8.17 GiB
Duration : 1 h 52 min
Overall bit rate : 10.4 Mb/s
Movie name : [Deadmau- RAWS] Weathering.with.You.2019.BDRip.1080p.Deadmauvlad
Encoded date : UTC 2020-06-01 03:22:21
Writing application : mkvmerge v7.8.0 ('River Man') 32bit built on Apr 3 2015 12:11:22
Writing library : libebml v1.3.1 + libmatroska v1.4.2
Video
ID : 1
Format : AVC
Format/Info : Advanced Video Codec
Format profile : High@L4.1
Format settings : CABAC / 4 Ref Frames
Format settings, CABAC : Yes
Format settings, ReFrames : 4 frames
Codec ID : V_MPEG4/ISO/AVC
Duration : 1 h 52 min
Bit rate : 8 500 kb/s
Width : 1 920 pixels
Height : 1 080 pixels
Display aspect ratio : 16:9
Frame rate mode : Constant
Frame rate : 23.976 (24000/1001) FPS
Color space : YUV
Chroma subsampling : 4:2:0
Bit depth : 8 bits
Scan type : Progressive
Bits/(Pixel*Frame) : 0.171
Stream size : 6.50 GiB (80%)
Title : Encoder by Deadmauvlad
Writing library : x264 core 157 r2969 d4099dd
Encoding settings : cabac=1 / ref=4 / deblock=1:1:1 / analyse=0x3:0x113 / me=esa / subme=10 / psy=1 / psy_rd=1.25:0.75 / mixed_ref=0 / me_range=38 / chroma_me=1 / trellis=2 / 8x8dct=1 / cqm=0 / deadzone=21,11 / fast_pskip=1 / chroma_qp_offset=-4 / threads=18 / lookahead_threads=4 / sliced_threads=0 / nr=0 / decimate=1 / interlaced=0 / bluray_compat=0 / constrained_intra=0 / bframes=14 / b_pyramid=2 / b_adapt=2 / b_bias=0 / direct=1 / weightb=1 / open_gop=0 / weightp=2 / keyint=240 / keyint_min=24 / scenecut=40 / intra_refresh=0 / rc_lookahead=60 / rc=2pass / mbtree=1 / bitrate=8500 / ratetol=1.0 / qcomp=0.60 / qpmin=1 / qpmax=69 / qpstep=4 / cplxblur=20.0 / qblur=0.5 / ip_ratio=1.48 / aq=1:1.50
Language : English
Default : Yes
Forced : No
Color range : Limited
Color primaries : BT.709
Transfer characteristics : BT.709
Matrix coefficients : BT.709
Audio #1
ID : 2
Format : AC-3
Format/Info : Audio Coding 3
Commercial name : Dolby Digital
Codec ID : A_AC3
Duration : 1 h 52 min
Bit rate mode : Constant
Bit rate : 384 kb/s
Channel(s) : 6 channels
Channel layout : L R C LFE Ls Rs
Sampling rate : 48.0 kHz
Frame rate : 31.250 FPS (1536 SPF)
Bit depth : 16 bits
Compression mode : Lossy
Stream size : 308 MiB (4%)
Title : rus DUB
Language : Russian
Service kind : Complete Main
Default : No
Forced : No
Audio #2
ID : 3
Format : AC-3
Format/Info : Audio Coding 3
Commercial name : Dolby Digital
Codec ID : A_AC3
Duration : 1 h 52 min
Bit rate mode : Constant
Bit rate : 384 kb/s
Channel(s) : 6 channels
Channel layout : L R C LFE Ls Rs
Sampling rate : 48.0 kHz
Frame rate : 31.250 FPS (1536 SPF)
Bit depth : 16 bits
Compression mode : Lossy
Stream size : 308 MiB (4%)
Title : Профессиональный (многоголосый закадровый) | NewComers
Language : Russian
Service kind : Complete Main
Default : No
Forced : No
Audio #3
ID : 4
Format : AC-3
Format/Info : Audio Coding 3
Commercial name : Dolby Digital
Codec ID : A_AC3
Duration : 1 h 52 min
Bit rate mode : Constant
Bit rate : 384 kb/s
Channel(s) : 6 channels
Channel layout : L R C LFE Ls Rs
Sampling rate : 48.0 kHz
Frame rate : 31.250 FPS (1536 SPF)
Bit depth : 16 bits
Compression mode : Lossy
Stream size : 308 MiB (4%)
Title : ukr
Language : Ukrainian
Service kind : Complete Main
Default : No
Forced : No
Audio #4
ID : 5
Format : DTS
Format/Info : Digital Theater Systems
Codec ID : A_DTS
Duration : 1 h 52 min
Bit rate mode : Constant
Bit rate : 768 kb/s
Channel(s) : 6 channels
Channel layout : C L R Ls Rs LFE
Sampling rate : 48.0 kHz
Frame rate : 93.750 FPS (512 SPF)
Bit depth : 24 bits
Compression mode : Lossy
Stream size : 616 MiB (7%)
Title : Original 768 Кбит/сек
Language : Japanese
Default : No
Forced : No
Text #1
ID : 6
Format : ASS
Codec ID : S_TEXT/ASS
Codec ID/Info : Advanced Sub Station Alpha
Compression mode : Lossless
Title : Rus forsed
Language : Russian
Default : No
Forced : No
Text #2
ID : 7
Format : ASS
Codec ID : S_TEXT/ASS
Codec ID/Info : Advanced Sub Station Alpha
Compression mode : Lossless
Title : Rus Full
Language : Russian
Default : No
Forced : No
Menu
00:00:00.000 : ja:Chapter 01
00:03:52.315 : ja:Chapter 02
00:07:13.433 : ja:Chapter 03
00:11:51.210 : ja:Chapter 04
00:17:27.046 : ja:Chapter 05
00:19:46.351 : ja:Chapter 06
00:22:25.260 : ja:Chapter 07
00:26:08.066 : ja:Chapter 08
00:30:07.972 : ja:Chapter 09
00:34:27.982 : ja:Chapter 10
00:38:29.807 : ja:Chapter 11
00:41:36.243 : ja:Chapter 12
00:44:05.893 : ja:Chapter 13
00:47:58.876 : ja:Chapter 14
00:52:11.461 : ja:Chapter 15
00:55:55.852 : ja:Chapter 16
00:58:46.773 : ja:Chapter 17
01:01:42.532 : ja:Chapter 18
01:05:18.247 : ja:Chapter 19
01:08:55.923 : ja:Chapter 20
01:13:52.928 : ja:Chapter 21
01:16:58.697 : ja:Chapter 22
01:19:57.709 : ja:Chapter 23
01:23:15.949 : ja:Chapter 24
01:25:48.226 : ja:Chapter 25
01:28:51.117 : ja:Chapter 26
01:33:02.868 : ja:Chapter 27
01:38:33.115 : ja:Chapter 28
01:43:29.328 : ja:Chapter 29
01:47:40.829 : ja:Chapter 30
01:52:12.726 : ja:Chapter 31
[Profile] [PM]
Display posts:    
Reply to topic

Current time is: 02-Jul 13:07

All times are UTC + 3



You cannot post new topics in this forum
You cannot reply to topics in this forum
You cannot edit your posts in this forum
You cannot delete your posts in this forum
You cannot vote in polls in this forum
You cannot attach files in this forum
You cannot download files in this forum