Часы с кукушкой [1-4 серии из 4] (2019) WEB-DLRip от Generalfilm | КПК

Reply to topic
 
Author Message

GORGIK ®

Gender: Male

Longevity: 1 year 11 months

Posts: 360

Location: СССР

Post 11-Sep-2020 09:22

[Quote]

Часы с кукушкой Год выпуска: 2019
Жанр: Детектив
Выпущено: Украина, Film.UA Group
Режиссер: Максим Бернадский
В ролях: Дарья Плахтий, Вера Шпак, Всеволод Болдин, Сергей Дзялик, Владимир Лилицкий, Павел Текучев, Александр Боднар
О фильме: Кате Юдиной очень повезло в жизни. Она родилась в дружной и обеспеченной семье, у нее прекрасный молодой человек, в этом году она заканчивает архитектурный институт и у нее уже есть предложения о работе. Кажется, что Катя вытянула в жизни счастливый билет. Но внезапно мама Кати, Елена, умирает при странных обстоятельствах. А буквально через два месяца отец Кати, Михаил, женится второй раз. Его новая жена, красавица Наталья, буквально на пару лет старше самой Кати. Наталья всеми силами старается наладить отношения с падчерицей, которая никак не может смириться с тем, что отец так быстро забыл Елену. А вскоре на Катю обрушивается новый удар: Михаилу становится плохо прямо на работе, и он внезапно умирает. Официальное заключение – сердечный приступ. Но Катя уверена – кто-то жестоко и безжалостно расправляется с семьей Юдиных…

Качество: WEB-DLRip | КПК
Видео: MPEG-4 AVC (x264), 640x360, ~500 kbps, 25.000 fps
Аудио: AAC LC, 48.0 KHz, 2 ch, 128 Kbps
Продолжительность: 4 х ~ 00:45:00
Перевод / Озвучка: Не требуется [Русский]
Cубтитры: нет

Скриншоты

MediaInfo

Complete name : F:\КИНО\Chasy.S.Kukushkoi.S01.2019.AVC.WEB-DLRip.KPK.GF\Chasy.S.Kukushkoi.s01e01.2019.AVC.WEB-DLRip.KPK.GF.mp4
Format : MPEG-4
Codec ID : M4V (isom/iso2/avc1)
File size : 207 MiB
Duration : 45 min 41 s
Overall bit rate mode : Variable
Overall bit rate : 634 kb/s
Writing application : Lavf53.19.0
Video
ID : 1
Format : AVC
Format/Info : Advanced Video Codec
Format profile : High@L4.1
Format settings, CABAC : Yes
Format settings, RefFrames : 8 frames
Codec ID : avc1
Codec ID/Info : Advanced Video Coding
Duration : 45 min 41 s
Bit rate : 500 kb/s
Width : 640 pixels
Height : 360 pixels
Display aspect ratio : 16:9
Frame rate mode : Constant
Frame rate : 25.000 FPS
Color space : YUV
Chroma subsampling : 4:2:0
Bit depth : 8 bits
Scan type : Progressive
Bits/(Pixel*Frame) : 0.087
Stream size : 163 MiB (79%)
Writing library : x264 core 148 r2638 7599210
Encoding settings : cabac=1 / ref=8 / deblock=1:-1:-1 / analyse=0x3:0x133 / me=umh / subme=10 / psy=1 / psy_rd=1.00:0.00 / mixed_ref=1 / me_range=24 / chroma_me=1 / trellis=2 / 8x8dct=1 / cqm=0 / deadzone=21,11 / fast_pskip=1 / chroma_qp_offset=-2 / threads=6 / lookahead_threads=1 / sliced_threads=0 / nr=0 / decimate=1 / interlaced=0 / bluray_compat=0 / constrained_intra=0 / bframes=8 / b_pyramid=2 / b_adapt=2 / b_bias=0 / direct=3 / weightb=1 / open_gop=0 / weightp=2 / keyint=250 / keyint_min=126 / scenecut=40 / intra_refresh=0 / rc_lookahead=40 / rc=2pass / mbtree=1 / bitrate=500 / ratetol=1.0 / qcomp=0.60 / qpmin=0 / qpmax=69 / qpstep=4 / cplxblur=20.0 / qblur=0.5 / ip_ratio=1.40 / aq=1:1.00
Menus : 3
Audio
ID : 2
Format : AAC
Format/Info : Advanced Audio Codec
Format profile : LC
Codec ID : 40
Duration : 45 min 41 s
Bit rate mode : Variable
Bit rate : 128 kb/s
Channel(s) : 2 channels
Channel positions : Front: L R
Sampling rate : 48.0 kHz
Frame rate : 46.875 FPS (1024 SPF)
Compression mode : Lossy
Stream size : 41.8 MiB (20%)
Default : Yes
Alternate group : 1
Menus : 3
Релиз от:
[Profile] [PM]
Display posts:    
Reply to topic

Current time is: 27-Oct 08:30

All times are UTC + 3



You cannot post new topics in this forum
You cannot reply to topics in this forum
You cannot edit your posts in this forum
You cannot delete your posts in this forum
You cannot vote in polls in this forum
You cannot attach files in this forum
You cannot download files in this forum