Агентство О.К.О. [1-16 серии из 16] (2020) WEBRip от Generalfilm | КПК

Reply to topic
 
Author Message

mjjhec ®

Gender: Male

Longevity: 1 year 11 months

Posts: 725

Location: СССР

Post 22-Sep-2020 08:28

[Quote]

Агентство О.К.О. Год выпуска: 2020
Жанр: Детектив
Выпущено: Россия, LEGIO FELIX по заказу телеканала ТВ3
Режиссер: Илья Куликов, Анна Мирохина
В ролях: Рина Гришина, Игорь Стам, Виктория Тарасова, Артём Ешкин, Даниэла Стоянович, Евгений Венедиктов, Александр Сергеев (IV), Маргарита Силаева, Марина Кондратьева.
О фильме: Что будет, если бунтарь-полицейский и медиум с реальными способностями однажды встретятся? Бывший опер с Петровки в паре с девушкой-экстрасенсом занимаются поисками пропавших без вести, расследованием убийств, смертей и прочих дел, где оказалась бессильна полиция...
Качество: WEBRip | КПК
Видео: Н.264, 640x272 (2.35:1), 25 fps, 400 Kbps
Аудио: AAC LC, 44.1 KHz, 2 ch, 128 Kbps
Продолжительность: 16 x ~00:49:00
Перевод / Озвучка: Не требуется

Скриншоты

MediaInfo

General
Complete name : F:\Rip\O.K.O.by.mjjhec\03. Агентство О.К.О...2020.WEB-DLRip.mp4
Format : MPEG-4
Format profile : Base Media
Codec ID : isom (isom/avc1/iso6)
File size : 162 MiB
Duration : 42 min 38 s
Overall bit rate mode : Variable
Overall bit rate : 532 kb/s
Encoded date : UTC 2020-09-20 12:12:00
Tagged date : UTC 2020-09-20 12:12:00
Video
ID : 1
Format : AVC
Format/Info : Advanced Video Codec
Format profile : High@L4.1
Format settings : CABAC / 10 Ref Frames
Format settings, CABAC : Yes
Format settings, Reference : 10 frames
Codec ID : avc1
Codec ID/Info : Advanced Video Coding
Duration : 42 min 37 s
Bit rate : 400 kb/s
Maximum bit rate : 1 291 kb/s
Width : 640 pixels
Height : 272 pixels
Display aspect ratio : 2.35:1
Frame rate mode : Constant
Frame rate : 25.000 FPS
Color space : YUV
Chroma subsampling : 4:2:0
Bit depth : 8 bits
Scan type : Progressive
Bits/(Pixel*Frame) : 0.092
Stream size : 122 MiB (75%)
Title : 264@GPAC0.5.2-DEV-rev248-g39d5978-master
Writing library : x264 core 146 r2538 121396c
Encoding settings : cabac=1 / ref=10 / deblock=1:-3:-3 / analyse=0x3:0x133 / me=umh / subme=11 / psy=1 / psy_rd=1.00:1.00 / mixed_ref=1 / me_range=48 / chroma_me=1 / trellis=2 / 8x8dct=1 / cqm=0 / deadzone=21,11 / fast_pskip=0 / chroma_qp_offset=-4 / threads=6 / lookahead_threads=1 / sliced_threads=0 / nr=0 / decimate=0 / interlaced=0 / bluray_compat=0 / constrained_intra=0 / bframes=10 / b_pyramid=2 / b_adapt=2 / b_bias=0 / direct=3 / weightb=1 / open_gop=0 / weightp=2 / keyint=240 / keyint_min=24 / scenecut=40 / intra_refresh=0 / rc_lookahead=60 / rc=2pass / mbtree=0 / bitrate=400 / ratetol=1.0 / qcomp=0.60 / qpmin=0 / qpmax=69 / qpstep=4 / cplxblur=20.0 / qblur=0.5 / vbv_maxrate=14000 / vbv_bufsize=14000 / nal_hrd=none / filler=0 / ip_ratio=1.40 / pb_ratio=1.30 / aq=1:1.00
Encoded date : UTC 2020-09-20 12:12:00
Tagged date : UTC 2020-09-20 12:12:04
Codec configuration box : avcC
Audio
ID : 2
Format : AAC LC
Format/Info : Advanced Audio Codec Low Complexity
Codec ID : mp4a-40-2
Duration : 42 min 38 s
Bit rate mode : Variable
Bit rate : 128 kb/s
Maximum bit rate : 135 kb/s
Channel(s) : 2 channels
Channel layout : L R
Sampling rate : 44.1 kHz
Frame rate : 43.066 FPS (1024 SPF)
Compression mode : Lossy
Stream size : 39.0 MiB (24%)
Encoded date : UTC 2020-09-20 11:29:29
Tagged date : UTC 2020-09-20 12:12:04
Релиз от:
[Profile] [PM]
Display posts:    
Reply to topic

Current time is: 31-Oct 04:48

All times are UTC + 3



You cannot post new topics in this forum
You cannot reply to topics in this forum
You cannot edit your posts in this forum
You cannot delete your posts in this forum
You cannot vote in polls in this forum
You cannot attach files in this forum
You cannot download files in this forum