Новенький [2 сезон: 1-9 серия из 9] (2021) WEBRip от Files-x

Reply to topic
 
Author Message

bond74 ®

Gender: Male

Longevity: 2 years 11 months

Posts: 1285

Post 16-Aug-2021 11:39

[Quote]

Новенький Год выпуска: 2021
Жанр: Драма
Выпущено: Россия, Кинокомпания "Док-Синема"
Режиссер: Оксана Барковская
В ролях: Глеб Калюжный, Анна Демидова (III), Виталий Щербина, Елизавета Запорожец, Иван Рысин, Алёна Васина, Екатерина Абразакова, Иван Непомнящий, Артём Давыдов, Ярослав Копыстыринский, Анка Бессонова, Иван Лаврухин, Анастасия Могучева, Елизавета Говорова, Василий Симонов, Дарья Щербакова
О фильме: Московский школьник Максим Плетнев, переехав из столицы в провинциальный Юровск, становится жертвой буллинга со стороны одноклассников. После дня рождения одноклассницы Сони Рябовой, зачинщицы травли, Макс бесследно пропадает. Его исчезновение переворачивает жизнь городка с ног на голову, попутно вскрывая ложь подростков и неприятные тайны взрослых. Неожиданная эсэмэска, которую получают герои в конце первого сезона, доказывает, что Макс все-таки жив. Однако его возвращение становится поводом для расследования другой, еще более страшной тайны. События, случившиеся в Юровске в 1980-х, раскроют секреты взрослых, которые замалчивались более 30 лет. Возможно, не все взрослые здесь те, за кого себя выдают.

Качество: WEB-DLRip
Видео: XviD, ~ 1600 Кбит/с, 720x304, 25 кадр/с
Аудио: AC3, 2 ch, 192 Кбит/с
Продолжительность: 7 х ~ 00:46:00
Перевод: Не требуется
Субтитры: Нет
Версия 18+. Внимание! Присутствует ненормативная лексика.

Скриншоты


MediaInfo

General
Complete name : H:\fiiles x\ Новенький-2..2021.WEB-DLRip.Files-x\01. Новенький-2..2021.WEB-DLRip.Files-x.avi
Format : AVI
Format/Info : Audio Video Interleave
File size : 579 MiB
Duration : 45mn 2s
Overall bit rate : 1 798 Kbps
Writing application : VirtualDubMod 1.5.10.3 | www.virtualdub-fr.org || (build 2550/release)
Writing library : VirtualDubMod build 2550/release
Video
ID : 0
Format : MPEG-4 Visual
Format profile : Advanced Simple@L5
Format settings, BVOP : 1
Format settings, QPel : No
Format settings, GMC : No warppoints
Format settings, Matrix : Custom
Codec ID : XVID
Codec ID/Hint : XviD
Duration : 45mn 2s
Bit rate : 1 596 Kbps
Width : 720 pixels
Height : 304 pixels
Display aspect ratio : 2.35:1
Frame rate : 25.000 fps
Color space : YUV
Chroma subsampling : 4:2:0
Bit depth : 8 bits
Scan type : Progressive
Compression mode : Lossy
Bits/(Pixel*Frame) : 0.292
Stream size : 514 MiB (89%)
Writing library : XviD 73
Audio
ID : 1
Format : AC-3
Format/Info : Audio Coding 3
Mode extension : CM (complete main)
Codec ID : 2000
Duration : 45mn 2s
Bit rate mode : Constant
Bit rate : 192 Kbps
Channel(s) : 2 channels
Channel positions : Front: L R
Sampling rate : 48.0 KHz
Bit depth : 16 bits
Compression mode : Lossy
Stream size : 61.9 MiB (11%)
Alignment : Split accross interleaves
Interleave, duration : 40 ms (1.00 video frame)
Interleave, preload duration : 500 ms

Раздача ведётся путём добавления новых серий

Внимание! Раздача ведётся путём добавления новых серий; при каждом добавлении создаётся новый торрент.
Чтобы начать докачку новой серии, пользователям необходимо сделать следующее:
1. Остановить скачивание;
2. Удалить старый торрент у себя из клиента (старые серии удалять не надо);
3. Скачать новый торрент и запустить его у себя в клиенте вместо старого, при этом указать клиенту путь в старую папку куда и должно происходить скачивание новых серий. Ваш клиент при этом должен произвести хеширование (проверку) старой папки и будет докачивать только те серии, которых у вас ещё нет. Старые серии при этом не удаляются, а продолжают раздаваться! Eсли вы уже удалили старые серии, то предотвратить повторную закачку старых серий можно, отжав галочку в соответствующих местах при запуске нового торрента.
Релиз от:

Release was prepared by RG Files-x

[Profile] [PM]
Display posts:    
Reply to topic

Current time is: 18-Oct 08:26

All times are UTC + 3



You cannot post new topics in this forum
You cannot reply to topics in this forum
You cannot edit your posts in this forum
You cannot delete your posts in this forum
You cannot vote in polls in this forum
You cannot attach files in this forum
You cannot download files in this forum