Веном / Venom (2018) BDRip-AVC от R.G.Generalfilm [iTunes]

Reply to topic
 
Author Message

White Smoke ®

Gender: Male

Longevity: 1 year 10 months

Posts: 157

Post 21-Dec-2018 21:00

[Quote]

Веном / Venom Год выпуска: 2018
Жанр: боевик, фантастика, триллер, ужасы
Выпущено: США, Китай
Режиссер: Рубен Фляйшер
В ролях: Том Харди (Eddie Brock / Venom), Мишель Уильямс (Anne Weying), Риз Ахмед (Carlton Drake / Riot), Скотт Хэйз (Security Chief Roland Treece), Рейд Скотт (Dr. Dan Lewis), Дженни Слейт (Dr. Dora Skirth), Мелора Уолтерс (Homeless Woman Maria), Вуди Харрельсон (Cletus Kasady), Пегги Лу (Mrs. Chen), Малкольм С. Мюррэй (Lewis Donate), Сопе Алуко (Dr. Collins), Уэйн Пер (Dr. Emerson)
О фильме: Что если в один прекрасный день в тебя вселяется существо-симбиот, которое наделяет тебя сверхчеловеческими способностями? Вот только Веном - симбиот совсем недобрый, и договориться с ним невозможно. Хотя нужно ли договариваться?.. Ведь в какой-то момент ты понимаешь, что быть плохим вовсе не так уж и плохо. Так даже веселее. В мире и так слишком много супергероев! Мы - Веном!
Качество: BDRip-AVC
Видео: AVC, 1024x428 (2.40:1), 23.976 fps, 1 941 Kbps (0.185 bit/pixel)
Аудио: AC3, 48.0 KHz, 6 ch, 384 Kbps
Продолжительность: 01:52:08
Перевод: дублированный iTunes
Cубтитры: русские (Forced) (Full)

Скриншоты

MediaInfo

General
Unique ID : 214271038466390444288833535693577646047 (0xA13319D5E03A340DA3FF86338F4DEFDF)
Complete name : E:\Venom.2018.BDRip-AVC.Rip.by.White Smoke.R.G.Generalfilm.mkv
Format : Matroska
Format version : Version 4 / Version 2
File size : 1.82 GiB
Duration : 1 h 52 min
Overall bit rate : 2 328 kb/s
Movie name : Venom.2018.BDRip-AVC.Rip.by.White Smoke.R.G.Generalfilm.mkv
Encoded date : UTC 2018-12-21 13:41:52
Writing application : mkvmerge v6.8.0 ('Theme for Great Cities') 64bit built on Mar 2 2014 21:34:26
Writing library : libebml v1.3.0 + libmatroska v1.4.1
Cover : Yes
Attachments : cover.jpg
Video
ID : 1
Format : AVC
Format/Info : Advanced Video Codec
Format profile : High@L4.1
Format settings : CABAC / 10 Ref Frames
Format settings, CABAC : Yes
Format settings, ReFrames : 10 frames
Codec ID : V_MPEG4/ISO/AVC
Duration : 1 h 52 min
Bit rate : 1 941 kb/s
Width : 1 024 pixels
Height : 428 pixels
Display aspect ratio : 2.40:1
Frame rate mode : Constant
Frame rate : 23.976 (24000/1001) FPS
Color space : YUV
Chroma subsampling : 4:2:0
Bit depth : 8 bits
Scan type : Progressive
Bits/(Pixel*Frame) : 0.185
Stream size : 1.49 GiB (82%)
Writing library : x264 core 148 r2638 7599210
Encoding settings : cabac=1 / ref=10 / deblock=1:-2:-1 / analyse=0x3:0x113 / me=umh / subme=11 / psy=1 / psy_rd=0.00:0.15 / mixed_ref=1 / me_range=32 / chroma_me=1 / trellis=2 / 8x8dct=1 / cqm=0 / deadzone=21,11 / fast_pskip=0 / chroma_qp_offset=-3 / threads=6 / lookahead_threads=1 / sliced_threads=0 / nr=0 / decimate=0 / interlaced=0 / bluray_compat=0 / constrained_intra=0 / bframes=10 / b_pyramid=2 / b_adapt=2 / b_bias=0 / direct=1 / weightb=1 / open_gop=0 / weightp=2 / keyint=240 / keyint_min=23 / scenecut=40 / intra_refresh=0 / rc_lookahead=40 / rc=2pass / mbtree=0 / bitrate=1941 / ratetol=1.0 / qcomp=0.65 / qpmin=0 / qpmax=69 / qpstep=4 / cplxblur=20.0 / qblur=0.5 / vbv_maxrate=50000 / vbv_bufsize=6500 / nal_hrd=none / filler=0 / ip_ratio=1.40 / pb_ratio=1.30 / aq=1:1.00
Language : English
Default : Yes
Forced : No
Audio
ID : 2
Format : AC-3
Format/Info : Audio Coding 3
Commercial name : Dolby Digital
Codec ID : A_AC3
Duration : 1 h 52 min
Bit rate mode : Constant
Bit rate : 384 kb/s
Channel(s) : 6 channels
Channel layout : L R C LFE Ls Rs
Sampling rate : 48.0 kHz
Frame rate : 31.250 FPS (1536 SPF)
Bit depth : 16 bits
Compression mode : Lossy
Stream size : 308 MiB (16%)
Title : iTunes
Language : Russian
Service kind : Complete Main
Default : Yes
Forced : Yes
Text #1
ID : 3
Format : UTF-8
Codec ID : S_TEXT/UTF8
Codec ID/Info : UTF-8 Plain Text
Title : Forced (iTunes)
Language : Russian
Default : Yes
Forced : Yes
Text #2
ID : 4
Format : UTF-8
Codec ID : S_TEXT/UTF8
Codec ID/Info : UTF-8 Plain Text
Title : Full (iTunes)
Language : Russian
Default : No
Forced : No
Menu
00:00:00.000 : en:00:00:00.000
00:04:43.200 : en:00:04:43.200
00:10:58.074 : en:00:10:58.074
00:17:34.929 : en:00:17:34.929
00:24:05.486 : en:00:24:05.486
00:32:18.812 : en:00:32:18.812
00:40:07.447 : en:00:40:07.447
00:46:51.976 : en:00:46:51.976
00:53:26.203 : en:00:53:26.203
01:00:57.070 : en:01:00:57.070
01:04:01.796 : en:01:04:01.796
01:08:36.446 : en:01:08:36.446
01:11:12.852 : en:01:11:12.852
01:14:15.743 : en:01:14:15.743
01:21:18.749 : en:01:21:18.749
01:27:15.021 : en:01:27:15.021
[Profile] [PM]
Display posts:    
Reply to topic

Current time is: 18-Sep 22:09

All times are UTC + 3



You cannot post new topics in this forum
You cannot reply to topics in this forum
You cannot edit your posts in this forum
You cannot delete your posts in this forum
You cannot vote in polls in this forum
You cannot attach files in this forum
You cannot download files in this forum