Вечерний квартал [113] (2018) WEBRip от GeneralFilm

Reply to topic
 
Author Message

vsobbol ®

Gender: Male

Longevity: 1 year 10 months

Posts: 681

Location: Донецк

Post 01-Jan-2019 17:30

[Quote]

Вечерний квартал [113]
Год выпуска: 2018
Жанр: Юмористическое шоу, концерт, сатира
Выпущено: Украина, Студия 95 квартал
Режиссер: Студия 95 квартал
В ролях: Владимир Зеленский, Юрий Крапов, Денис Манжосов, Елена Кравец, Евгений Кошевой, Сергей Казанин, Александр Пикалов, Юрий Корявченков, Аркадий Лапухин
О фильме: О фильме:
Однажды веселые ребята из "95-го квартала" решили отметить свой переезд из родного Кривого Рога в Киев, а заодно 10-летие команды новым шоу. Коллектив подобрался душевный, "с огоньком", гости - сплошь знаменитые, а столичная публика - щедрая на аплодисменты. Так родилась самая смешная и популярная передача на отечественном телевидении - "Вечерний квартал". Идея шоу проста: в городе N есть некий модный квартал, в котором тусуются девять смешных жителей. Остальные просто приходят к ним в гости. Правда, гости не совсем обычные: среди них встречаются и богатые, и знаменитые, политики, и дизайнеры, и поп-звезды. Главный критерий - наличие здорового чувства юмора. Без него - никак, так как гостей здесь встречают не хлебом-солью, а розыгрышами и подколками, а те в свою очередь участвуют в скетчах и исполняют музыкальные или танцевальные номера.
Качество: WEBRip
Видео: XviD build 73, 720x400 (16:9), 25.000 fps, 1661 Kbps (0.231 bit/pixel)
Аудио: 48.0 kHz, AC3, 2/0 ch, 192 kbps
Продолжительность: 02:48:56
Перевод: Не требуется
Cубтитры: нет

Скриншоты

MediaInfo

General
Complete name : D:\Razdachi\Vechernij.Kvartal.113.XviD.WEBRip.GeneralFilm\Kvartal.113.e01.avi
Format : AVI
Format/Info : Audio Video Interleave
File size : 1.11 GiB
Duration : 1 h 26 min
Overall bit rate : 1 841 kb/s
Writing application : VirtualDubMod 1.5.10.3 | www.virtualdub-fr.org || (build 2550/release)
Writing library : VirtualDubMod build 2550/release
Video
ID : 0
Format : MPEG-4 Visual
Format profile : Advanced Simple@L5
Format settings, BVOP : 1
Format settings, QPel : No
Format settings, GMC : No warppoints
Format settings, Matrix : Custom
Codec ID : XVID
Codec ID/Hint : XviD
Duration : 1 h 26 min
Bit rate : 1 639 kb/s
Width : 720 pixels
Height : 400 pixels
Display aspect ratio : 16:9
Frame rate : 25.000 FPS
Color space : YUV
Chroma subsampling : 4:2:0
Bit depth : 8 bits
Scan type : Progressive
Compression mode : Lossy
Bits/(Pixel*Frame) : 0.228
Stream size : 1 010 MiB (89%)
Writing library : XviD 73
Audio
ID : 1
Format : AC-3
Format/Info : Audio Coding 3
Format settings, Endianness : Big
Codec ID : 2000
Duration : 1 h 26 min
Bit rate mode : Constant
Bit rate : 192 kb/s
Channel(s) : 2 channels
Channel positions : Front: L R
Sampling rate : 48.0 kHz
Frame rate : 31.250 FPS (1536 SPF)
Bit depth : 16 bits
Compression mode : Lossy
Stream size : 118 MiB (10%)
Alignment : Split accross interleaves
Interleave, duration : 40 ms (1.00 video frame)
Interleave, preload duratio : 500 ms
Service kind : Complete Main

Содержание

С каремелькой за щекой - Новогоднее обращение Порошенко
Политический Блюз или Новый Год с Тимошенко, Кличко, Порошенко и Парубий
Сложные взаимоотношения с Дедом Морозом - Владимир Зеленский
Кома новогодних дней
Мужик после новогоднего корпоратива - политическое Дискавери
Певица года NK (Настя Каменских) в гостях у Новогоднего Вечернего Квартала 2019
Проводницы Гиперлупа vs Министр Инфраструктуры
Лучший подарок для женщины на Новый Год
Плохие шутки - Игорь Коломойский и Ренат Ахметов
Вокруг Света на Автобусе - Как ИЗГНАТЬ ДЬЯВОЛА Сидящего за Тобой
Петя и Юля - Дуэт ПЕТЮЛЯ
Тактика Поменялась - Голосуем ЗА Зеленского
Как MONATIK проходил кастинг на Танці з зірками
Как Новый Год встретишь, так его и проведешь - Валерий Жидков
Хоть какой-то смысл в законах Порошенко - Муж разводится с женой
Дуэль из-за бабы - Владимир Ленский vs Евгений Онегин
Потап и Настя feat. Бьянка - Стиль собачки (Новогодняя Пародия)
Секретный Шифр Братьев Кличко
Гуцульская Рапсодия - Дзідзьо и группа Queen
Женский стон без симуляции - Утро после корпоратива
Каминг-аут украинской власти - Новогодняя песня
Релиз от:
[Profile] [PM]
Display posts:    
Reply to topic

Current time is: 19-Sep 01:40

All times are UTC + 3



You cannot post new topics in this forum
You cannot reply to topics in this forum
You cannot edit your posts in this forum
You cannot delete your posts in this forum
You cannot vote in polls in this forum
You cannot attach files in this forum
You cannot download files in this forum