Простая просьба / A Simple Favor (2018) BDRip 1080p от Generalfilm | iTunes

Reply to topic
 
Author Message

Monk ®

Gender: Male

Longevity: 1 year 3 months

Posts: 10521

Location: Казань

Post 14-Dec-2018 09:27

[Quote]

Простая просьба / A Simple Favor Год выпуска: 2018
Жанр: Триллер, драма, криминал, детектив
Выпущено: США, BRON Studios, Feigco Entertainment
Режиссер: Пол Фиг
В ролях: Анна Кендрик, Блэйк Лайвли, Генри Голдинг, Эндрю Рэннеллс, Иэн Хо, Джошуа Сатине, Гленда Браганза, Келли МакКормак, Апарна Нанчерла, Джия Мавджи
О фильме: Стефани, мама-блогер из маленького городка, оказывает подруге простую услугу, после чего та бесследно исчезает… Вместе с Шоном, мужем пропавшей, Стефни должна докопаться до истины. Отныне их жизни полны тайн и предательств, любви и верности, убийств и мести.

Качество: BDRip 1080p
Видео: AVC, 1920x1040 (16:9), 23.976 fps, 8600 Кбит/с (0.180 bit/pixel)
Аудио: AC3, 384 Кбит/с, 6 ch, 48.0 KHz
Продолжительность: 01:56:48
Перевод: Дублированный [iTunes]
Субтитры: Русские
Навигация по главам: есть

Скриншоты




MediaInfo

General
Unique ID : 245619492941140943989829316117694904904 (0xB8C897F8A9E105EAACAA4E100A69FA48)
Complete name : E:Запись с твA.Simple.Favor.2018.BDRip 1080p.Rip.by.White Smoke.R.G.Generalfilm.mkv
Format : Matroska
Format version : Version 4 / Version 2
File size : 7.33 GiB
Duration : 1 h 56 min
Overall bit rate : 8 981 kb/s
Movie name : A.Simple.Favor.2018.BDRip 1080p.Rip.by.White Smoke.R.G.Generalfilm.mkv
Encoded date : UTC 2018-12-17 01:54:47
Writing application : mkvmerge v6.8.0 ('Theme for Great Cities') 64bit built on Mar 2 2014 21:34:26
Writing library : libebml v1.3.0 + libmatroska v1.4.1
Video
ID : 1
Format : AVC
Format/Info : Advanced Video Codec
Format profile : High@L4.1
Format settings : CABAC / 4 Ref Frames
Format settings, CABAC : Yes
Format settings, ReFrames : 4 frames
Codec ID : V_MPEG4/ISO/AVC
Duration : 1 h 56 min
Bit rate : 8 600 kb/s
Width : 1 920 pixels
Height : 1 040 pixels
Display aspect ratio : 1.85:1
Frame rate mode : Constant
Frame rate : 23.976 (24000/1001) FPS
Color space : YUV
Chroma subsampling : 4:2:0
Bit depth : 8 bits
Scan type : Progressive
Bits/(Pixel*Frame) : 0.180
Stream size : 6.87 GiB (94%)
Writing library : x264 core 148 r2638 7599210
Encoding settings : cabac=1 / ref=4 / deblock=1:-2:-1 / analyse=0x3:0x113 / me=umh / subme=11 / psy=1 / psy_rd=0.00:0.15 / mixed_ref=1 / me_range=32 / chroma_me=1 / trellis=2 / 8x8dct=1 / cqm=0 / deadzone=21,11 / fast_pskip=0 / chroma_qp_offset=-3 / threads=6 / lookahead_threads=1 / sliced_threads=0 / nr=0 / decimate=0 / interlaced=0 / bluray_compat=0 / constrained_intra=0 / bframes=10 / b_pyramid=2 / b_adapt=2 / b_bias=0 / direct=1 / weightb=1 / open_gop=0 / weightp=2 / keyint=240 / keyint_min=23 / scenecut=40 / intra_refresh=0 / rc=2pass / mbtree=0 / bitrate=8600 / ratetol=1.0 / qcomp=0.65 / qpmin=0 / qpmax=69 / qpstep=4 / cplxblur=20.0 / qblur=0.5 / ip_ratio=1.40 / pb_ratio=1.30 / aq=1:1.00
Language : English
Default : Yes
Forced : No
Audio
ID : 2
Format : AC-3
Format/Info : Audio Coding 3
Commercial name : Dolby Digital
Codec ID : A_AC3
Duration : 1 h 56 min
Bit rate mode : Constant
Bit rate : 384 kb/s
Channel(s) : 6 channels
Channel layout : L R C LFE Ls Rs
Sampling rate : 48.0 kHz
Frame rate : 31.250 FPS (1536 SPF)
Bit depth : 16 bits
Compression mode : Lossy
Stream size : 321 MiB (4%)
Title : iTunes
Language : Russian
Service kind : Complete Main
Default : Yes
Forced : Yes
Text
ID : 3
Format : UTF-8
Codec ID : S_TEXT/UTF8
Codec ID/Info : UTF-8 Plain Text
Title : Full
Language : Russian
Default : No
Forced : No
Menu
00:00:00.000 : en:00:00:00.000
00:06:33.977 : en:00:06:33.977
00:17:03.606 : en:00:17:03.606
00:26:24.166 : en:00:26:24.166
00:36:33.942 : en:00:36:33.942
00:46:30.329 : en:00:46:30.329
00:55:31.370 : en:00:55:31.370
01:08:43.661 : en:01:08:43.661
01:19:10.788 : en:01:19:10.788
01:27:40.589 : en:01:27:40.589
01:38:01.751 : en:01:38:01.751
01:50:20.572 : en:01:50:20.572


Last edited by Monk on 2018-12-17 10:00; edited 1 time in total
[Profile] [PM]

Post 17-Dec-2018 09:59 (after 3 days)

Топик был перенесен из форума Зарубежные в форум Зарубежные фильмы от RG GeneralFilm
Monk
 

runetzone

Gender: Male

Longevity: 1 year 1 month

Posts: 65

Location: Санкт-Петербург

Post 09-Jan-2019 23:04 (after 26 days)

[Quote]

Спасибо за раздачу!!! ay
[Profile] [PM]
Display posts:    
Reply to topic

Current time is: 20-Feb 07:53

All times are UTC + 3



You cannot post new topics in this forum
You cannot reply to topics in this forum
You cannot edit your posts in this forum
You cannot delete your posts in this forum
You cannot vote in polls in this forum
You cannot attach files in this forum
You cannot download files in this forum