Мир будущего / Future World (2018) BDRip 720p | iTunes

Reply to topic
 
Author Message

runetzone ®

Gender: Male

Longevity: 11 months 2 days

Posts: 65

Location: Санкт-Петербург

Post 12-Jan-2019 12:28

[Quote]

Мир будущего / Future World Год выпуска: 2018
Жанр: Фантастика
Выпущено: США, AMBI Group, Black Sparrow Films, Dark Rabbit Productions
Режиссер: Джеймс Франко, Брюс Тьерри Чунг
В ролях: Джеймс Франко, Милла Йовович, Сьюки Уотерхаус, Джеффри Уолберг, Маргарита Левиева, Снуп Догг, Твин Шадоу, Метод Мэн, Люси Лью, Кармен Ардженциано
О фильме: Молодой человек, живущий в постапокалиптическом мире, вынужден отправиться в рискованное путешествие в мрачный и опасный мир Пустоши, чтобы отыскать лекарство для больной матери.

Качество: BDRip 720p
Видео: MPEG-4 AVC, 6141 Кбит/с, 1280x536, 23.976 fps
Аудио: Русский (AC3, 6 ch, 384 Кбит/с), английский (DTS, 6 ch, 1510 Кбит/с)
Продолжительность: 01:28:08
Перевод: Дублированный | iTunes
Cубтитры: нет

Скриншоты

MediaInfo

General
Unique ID : 193236303984818960164734034845996222530 (0x915FF55AEDAD9C2DA950ABD9AE6D0842)
Complete name : C:\Users\user\Downloads\Video\Future World.2O18.D.BdRip.72Op.mkv
Format : Matroska
File size : 4.95 GiB
Duration : 1h 28mn
Overall bit rate : 8 037 Kbps
Encoded date : UTC 2018-07-15 18:11:45
Writing application : mkvmerge v8.3.0 ('Over the Horizon') 64bit
Writing library : libebml v1.3.1 + libmatroska v1.4.2
DURATION : 01:28:07.008000000
NUMBER_OF_FRAMES : 165219
NUMBER_OF_BYTES : 253776384
_STATISTICS_WRITING_APP : mkvmerge v8.3.0 ('Over the Horizon') 64bit
_STATISTICS_WRITING_DATE_UTC : 2018-07-15 18:11:45
_STATISTICS_TAGS : BPS DURATION NUMBER_OF_FRAMES NUMBER_OF_BYTES
Video
ID : 1
Format : AVC
Format/Info : Advanced Video Codec
Format profile : High@L4.1
Format settings, CABAC : Yes
Format settings, ReFrames : 12 frames
Format settings, GOP : M=7, N=24
Codec ID : V_MPEG4/ISO/AVC
Duration : 1h 28mn
Bit rate : 5 983 Kbps
Width : 1 280 pixels
Height : 536 pixels
Display aspect ratio : 2.40:1
Frame rate : 23.976 fps
Color space : YUV
Chroma subsampling : 4:2:0
Bit depth : 8 bits
Scan type : Progressive
Bits/(Pixel*Frame) : 0.364
Stream size : 3.68 GiB (74%)
Audio #1
ID : 2
Format : AC-3
Format/Info : Audio Coding 3
Mode extension : CM (complete main)
Codec ID : A_AC3
Duration : 1h 28mn
Bit rate mode : Constant
Bit rate : 384 Kbps
Channel(s) : 6 channels
Channel positions : Front: L C R, Side: L R, LFE
Sampling rate : 48.0 KHz
Bit depth : 16 bits
Compression mode : Lossy
Stream size : 242 MiB (5%)
Language : Russian
Audio #2
ID : 3
Format : DTS
Format/Info : Digital Theater Systems
Codec ID : A_DTS
Duration : 1h 28mn
Bit rate mode : Constant
Bit rate : 1 510 Kbps
Channel(s) : 6 channels
Channel positions : Front: L C R, Side: L R, LFE
Sampling rate : 48.0 KHz
Bit depth : 24 bits
Compression mode : Lossy
Stream size : 952 MiB (19%)
Title : English
Language : English
[Profile] [PM]
Display posts:    
Reply to topic

Current time is: 09-Dec 03:42

All times are UTC + 3



You cannot post new topics in this forum
You cannot reply to topics in this forum
You cannot edit your posts in this forum
You cannot delete your posts in this forum
You cannot vote in polls in this forum
You cannot attach files in this forum
You cannot download files in this forum