Талли / Tully (2018) Blu-Ray Remux 1080p | Лицензия

Reply to topic
 
Author Message

runetzone ®

Gender: Male

Longevity: 11 months 9 days

Posts: 65

Location: Санкт-Петербург

Post 14-Jan-2019 11:13

[Quote]

Талли / Tully Год выпуска: 2018
Жанр: Драма, комедия
Выпущено: США, Bron Studios, Right Way Productions, Denver and Delilah Productions
Режиссер: Джейсон Рейтмен
В ролях: Маккензи Дэвис, Шарлиз Терон, Марк Дюпласс, Рон Ливингстон, Эмили Хейн, Илэйн Тан, Кристал Лоннеберг, Эльфина Люк, Марселин Хьюго, Майкл Патрик Лэйн
О фильме: Что подарить многодетной матери на рождение третьего ребенка? Тонну памперсов, беруши или блок релаксантов? А что, если подарить ей... няньку? Если мамаше удастся немного потерпеть причуды подарочной няньки, она поймет, какое счастье привалило и ей, и детям! Если, конечно, удастся.

Качество: Blu-Ray Remux 1080p
Видео: MPEG-4 AVC, 31.9 Mбит/с, 1920x1080, 23.976 fps
Аудио: Русский (AС3, 6 ch, 448 Кбит/с), английский (DTS-HD MA, 6 ch, 3173 Кбит/c)
Продолжительность: 01:35:36
Перевод: Дублированный | Лицензия
Cубтитры: Русские, английские

Скриншоты

MediaInfo

General
Unique ID : 284580945980995664032478414947398734845 (0xD6184BEA7BC81296B85F9A69A17053FD)
Complete name : D:\Video111\Tully.2018.BDREMUX.1080p.seleZen.mkv
Format : Matroska
Format version : Version 4
File size : 23.7 GiB
Duration : 1 h 35 min
Overall bit rate mode : Variable
Overall bit rate : 35.5 Mb/s
Movie name : Tully 2018 from селезень
Encoded date : UTC 2019-01-13 13:24:45
Writing application : mkvmerge v29.0.0 ('Like It Or Not') 64-bit
Writing library : libebml v1.3.6 + libmatroska v1.4.9
Video
ID : 1
Format : AVC
Format/Info : Advanced Video Codec
Format profile : High@L4.1
Format settings : CABAC / 4 Ref Frames
Format settings, CABAC : Yes
Format settings, ReFrames : 4 frames
Format settings, GOP : M=3, N=12
Codec ID : V_MPEG4/ISO/AVC
Duration : 1 h 35 min
Bit rate mode : Variable
Bit rate : 31.9 Mb/s
Maximum bit rate : 35.0 Mb/s
Width : 1 920 pixels
Height : 1 080 pixels
Display aspect ratio : 16:9
Frame rate mode : Constant
Frame rate : 23.976 (24000/1001) FPS
Color space : YUV
Chroma subsampling : 4:2:0
Bit depth : 8 bits
Scan type : Progressive
Bits/(Pixel*Frame) : 0.641
Stream size : 21.3 GiB (90%)
Language : English
Default : Yes
Forced : No
Audio #1
ID : 2
Format : AC-3
Format/Info : Audio Coding 3
Commercial name : Dolby Digital
Codec ID : A_AC3
Duration : 1 h 35 min
Bit rate mode : Constant
Bit rate : 448 kb/s
Channel(s) : 6 channels
Channel layout : L R C LFE Ls Rs
Sampling rate : 48.0 kHz
Frame rate : 31.250 FPS (1536 SPF)
Bit depth : 16 bits
Compression mode : Lossy
Stream size : 306 MiB (1%)
Title : R5
Language : Russian
Service kind : Complete Main
Default : Yes
Forced : Yes
Audio #2
ID : 3
Format : DTS XLL
Format/Info : Digital Theater Systems
Commercial name : DTS-HD Master Audio
Codec ID : A_DTS
Duration : 1 h 35 min
Bit rate mode : Variable
Bit rate : 3 173 kb/s
Channel(s) : 6 channels
Channel layout : C L R Ls Rs LFE
Sampling rate : 48.0 kHz
Frame rate : 93.750 FPS (512 SPF)
Bit depth : 24 bits
Compression mode : Lossless
Stream size : 2.12 GiB (9%)
Title : Original
Language : English
Default : No
Forced : No
Text #1
ID : 4
Format : UTF-8
Codec ID : S_TEXT/UTF8
Codec ID/Info : UTF-8 Plain Text
Duration : 1 h 28 min
Bit rate : 98 b/s
Count of elements : 1477
Stream size : 63.9 KiB (0%)
Title : Full
Language : Russian
Default : No
Forced : No
Text #2
ID : 5
Format : UTF-8
Codec ID : S_TEXT/UTF8
Codec ID/Info : UTF-8 Plain Text
Duration : 1 h 33 min
Bit rate : 69 b/s
Count of elements : 1630
Stream size : 47.3 KiB (0%)
Language : English
Default : No
Forced : No
Menu
00:00:00.000 : en:00:00:00.000
00:04:18.216 : en:00:04:18.216
00:09:53.676 : en:00:09:53.676
00:15:01.943 : en:00:15:01.943
00:19:10.983 : en:00:19:10.983
00:25:16.932 : en:00:25:16.932
00:30:19.401 : en:00:30:19.401
00:36:26.267 : en:00:36:26.267
00:41:31.155 : en:00:41:31.155
00:45:39.820 : en:00:45:39.820
00:49:44.607 : en:00:49:44.607
00:54:46.700 : en:00:54:46.700
01:00:17.030 : en:01:00:17.030
01:02:08.058 : en:01:02:08.058
01:05:24.671 : en:01:05:24.671
01:10:40.486 : en:01:10:40.486
01:15:41.454 : en:01:15:41.454
01:20:56.060 : en:01:20:56.060
01:24:15.592 : en:01:24:15.592
01:30:29.257 : en:01:30:29.257
Релиз от:
[Profile] [PM]

Starik60

Gender: Male

Longevity: 1 year 1 month

Posts: 192

Location: Москва, Россия

Post 14-Jan-2019 12:15 (after 1 hour 2 minutes)

[Quote]

Благодарю за помощь ! ! !
[Profile] [PM]
Display posts:    
Reply to topic

Current time is: 16-Dec 08:06

All times are UTC + 3



You cannot post new topics in this forum
You cannot reply to topics in this forum
You cannot edit your posts in this forum
You cannot delete your posts in this forum
You cannot vote in polls in this forum
You cannot attach files in this forum
You cannot download files in this forum