Скорость убивает / Speed Kills (2018) BDRip 1080p | HDrezka Studio

Reply to topic
 
Author Message

runetzone ®

Gender: Male

Longevity: 11 months 9 days

Posts: 65

Location: Санкт-Петербург

Post 14-Jan-2019 22:57

[Quote]

Скорость убивает / Speed Kills Год выпуска: 2018
Жанр: Триллер, драма, криминал, боевик
Выпущено: Пуэрто Рико, Blue Rider Pictures, Hannibal Pictures, JTP Films
Режиссер: Джоди Скурфилд
В ролях: Джон Траволта, Кэтрин Уинник, Дженнифер Эспозито, Майкл Уэстон, Джеймс Римар, Келлан Латс, Мэттью Модайн, Том Сайзмор, Моран Атиас, Чарльз Гиллеспи
О фильме: Сюжет фильма закручивается вокруг Бена Ароноффа, известного гонщика на скоростных катерах. Он не единожды выигрывал различные заезды, став легендой в своём виде спорта. Однажды Бен прекратил выступления и начал работать на наркокартели. Используя свои уникальные навыки, он провозил огромные партии наркотиков на территорию США. Федералы старались поймать Ароноффа, однако ему удавалось выходить сухим из воды. Бен долгое время вёл двойную жизнь, и на протяжении нескольких лет всё у него было хорошо. Всё изменилось после того, как отношения между ним и картелями безнадёжно испортились. Плюс ко всему прочему, у DEA появились серьёзные улики, с помощью которых его можно отправить за решётку на несколько десятков лет…

Качество: BDRip 1080p
Видео: MPEG-4 AVC, 9660 Кбит/с, 1920x816, 23.976 fps
Аудио: Русский (AC3, 2 ch, 192 Кбит/с), английский (AC3, 6 ch, 448 Кбит/c)
Продолжительность: 01:42:23
Перевод: Профессиональный многоголосый | HDrezka Studio
Cубтитры: Английские

Скриншоты

MediaInfo

General
Unique ID : 223355599157753290206283296796875884772 (0xA808B942344AE0F9A9F940E10C8308E4)
Complete name : D:Скорость убивает.2018.BDRip (1080 р)..Kinozal-Reliz.mkv
Format : Matroska
Format version : Version 4
File size : 7.36 GiB
Duration : 1 h 42 min
Overall bit rate : 10.3 Mb/s
Encoded date : UTC 2019-01-14 14:23:13
Writing application : mkvmerge v8.3.0 ('Over the Horizon') 64bit
Writing library : libebml v1.3.1 + libmatroska v1.4.2
Video
ID : 1
Format : AVC
Format/Info : Advanced Video Codec
Format profile : High@L4.1
Format settings : CABAC / 5 Ref Frames
Format settings, CABAC : Yes
Format settings, ReFrames : 5 frames
Codec ID : V_MPEG4/ISO/AVC
Duration : 1 h 42 min
Bit rate : 9 660 kb/s
Width : 1 920 pixels
Height : 816 pixels
Display aspect ratio : 2.35:1
Frame rate mode : Constant
Frame rate : 23.976 (24000/1001) FPS
Color space : YUV
Chroma subsampling : 4:2:0
Bit depth : 8 bits
Scan type : Progressive
Bits/(Pixel*Frame) : 0.257
Stream size : 6.90 GiB (94%)
Writing library : x264 core 146 r2538 121396c
Encoding settings : cabac=1 / ref=5 / deblock=1:0:0 / analyse=0x3:0x111 / me=umh / subme=9 / psy=1 / psy_rd=1.00:0.10 / mixed_ref=1 / me_range=32 / chroma_me=1 / trellis=2 / 8x8dct=1 / cqm=0 / deadzone=21,11 / fast_pskip=0 / chroma_qp_offset=-3 / threads=6 / lookahead_threads=1 / sliced_threads=0 / nr=0 / decimate=1 / interlaced=0 / bluray_compat=0 / constrained_intra=0 / bframes=3 / b_pyramid=2 / b_adapt=2 / b_bias=0 / direct=3 / weightb=1 / open_gop=0 / weightp=2 / keyint=250 / keyint_min=23 / scenecut=40 / intra_refresh=0 / rc_lookahead=50 / rc=2pass / mbtree=1 / bitrate=9660 / ratetol=1.0 / qcomp=0.60 / qpmin=0 / qpmax=69 / qpstep=4 / cplxblur=20.0 / qblur=0.5 / ip_ratio=1.40 / aq=1:1.00
Default : Yes
Forced : No
Audio #1
ID : 2
Format : AC-3
Format/Info : Audio Coding 3
Commercial name : Dolby Digital
Codec ID : A_AC3
Duration : 1 h 42 min
Bit rate mode : Constant
Bit rate : 192 kb/s
Channel(s) : 2 channels
Channel layout : L R
Sampling rate : 48.0 kHz
Frame rate : 31.250 FPS (1536 SPF)
Bit depth : 16 bits
Compression mode : Lossy
Stream size : 141 MiB (2%)
Service kind : Complete Main
Default : Yes
Forced : No
Audio #2
ID : 3
Format : AC-3
Format/Info : Audio Coding 3
Commercial name : Dolby Digital
Codec ID : A_AC3
Duration : 1 h 42 min
Bit rate mode : Constant
Bit rate : 448 kb/s
Channel(s) : 6 channels
Channel layout : L R C LFE Ls Rs
Sampling rate : 48.0 kHz
Frame rate : 31.250 FPS (1536 SPF)
Bit depth : 16 bits
Compression mode : Lossy
Stream size : 328 MiB (4%)
Service kind : Complete Main
Default : No
Forced : No
Text
ID : 4
Format : UTF-8
Codec ID : S_TEXT/UTF8
Codec ID/Info : UTF-8 Plain Text
Duration : 1 h 36 min
Bit rate : 51 b/s
Count of elements : 1109
Stream size : 36.4 KiB (0%)
Default : Yes
Forced : Yes
Релиз от:
[Profile] [PM]
Display posts:    
Reply to topic

Current time is: 16-Dec 07:35

All times are UTC + 3



You cannot post new topics in this forum
You cannot reply to topics in this forum
You cannot edit your posts in this forum
You cannot delete your posts in this forum
You cannot vote in polls in this forum
You cannot attach files in this forum
You cannot download files in this forum