Трансформеры: Последний рыцарь / Transformers: The Last Knight (2017) BDRip 720p | Лицензия

Reply to topic
 
Author Message

Monk ®

Gender: Male

Longevity: 1 year

Posts: 9601

Location: Казань

Post 16-Jan-2019 00:22

[Quote]

Трансформеры: Последний рыцарь / Transformers: The Last Knight Год выпуска: 2017
Жанр: Фантастика, боевик, триллер, приключения
Выпущено: США, Di Bonaventura Pictures, Hasbro Inc., Huahua Film & Media Culture, Ian Bryce Productions, Paramount Pictures
Режиссер: Майкл Бэй
В ролях: Марк Уолберг, Энтони Хопкинс, Джош Дюамель, Лора Хэддок, Сантьяго Кабрера, Изабела Монер, Джеррод Кармайкл, Стэнли Туччи, Лиам Гэрриган, Мартин МакКриди
О фильме: Не столь отдаленное будущее. Оптимус Прайм улетел, но обещал вернуться. Отряды специально обученных людей ловят трансформеров по всему миру и передают тех в секретные лаборатории для бесчеловечных экспериментов. Оставшиеся на свободе сгустки говорящего металла прячутся на свалках и пунктах приема вторсырья. Тем временем выясняется, что к Земле приближается полуразложившаяся планета пришельцев, Мегатрон опять живее всех живых и ищет очередное "оружие возмездия", а российский президент спрятался в подземном бункере. В этих тяжелейших условиях разношерстной команде сборщиков металлического лома, английского лорда и профессора из Оксфорда при поддержке американской военщины необходимо не только предотвратить грядущий апокалипсис, но и устроить личную жизнь.

Качество: BDRip 720p
Видео: MPEG-4 AVC, 6500 Кбит/с, 1280x674
Аудио: Русский, английский (AC3, 6 ch, 640 Кбит/с)
Продолжительность: 02:34:39
Перевод: Дублированный [Лицензия]
Субтитры: Русские, английские

Скриншоты


MediaInfo

General
Unique ID : 242157415866288430864120323429189981046 (0xB62DD2649486BA209C6D349409469376)
Complete name : F:\VideoSSD\Transformers.The.Last.Knight.2017.Lic.BDRip.720p.ExKinoRay.mkv
Format : Matroska
Format version : Version 4 / Version 2
File size : 8.41 GiB
Duration : 2 h 34 min
Overall bit rate : 7 782 kb/s
Encoded date : UTC 2017-10-19 12:07:50
Writing application : mkvmerge v16.0.0 ('Protest') 64-bit
Writing library : libebml v1.3.5 + libmatroska v1.4.8
Video
ID : 1
Format : AVC
Format/Info : Advanced Video Codec
Format profile : High@L4.1
Format settings : CABAC / 9 Ref Frames
Format settings, CABAC : Yes
Format settings, RefFrames : 9 frames
Codec ID : V_MPEG4/ISO/AVC
Duration : 2 h 34 min
Bit rate : 6 500 kb/s
Width : 1 280 pixels
Height : 674 pixels
Display aspect ratio : 1.899
Frame rate mode : Constant
Frame rate : 23.976 (24000/1001) FPS
Color space : YUV
Chroma subsampling : 4:2:0
Bit depth : 8 bits
Scan type : Progressive
Bits/(Pixel*Frame) : 0.314
Stream size : 7.02 GiB (84%)
Writing library : x264 core 148 r2665kMod a01e339
Encoding settings : cabac=1 / ref=9 / deblock=1:-3:-3 / analyse=0x3:0x133 / me=umh / subme=11 / psy=1 / fade_compensate=0.00 / psy_rd=1.05:0.00 / mixed_ref=1 / me_range=32 / chroma_me=1 / trellis=2 / 8x8dct=1 / cqm=0 / deadzone=21,11 / fast_pskip=0 / chroma_qp_offset=-2 / threads=21 / lookahead_threads=3 / sliced_threads=0 / nr=0 / decimate=0 / interlaced=0 / bluray_compat=0 / constrained_intra=0 / fgo=0 / bframes=8 / b_pyramid=2 / b_adapt=2 / b_bias=0 / direct=3 / weightb=1 / open_gop=0 / weightp=2 / keyint=240 / keyint_min=24 / scenecut=40 / intra_refresh=0 / rc=2pass / mbtree=0 / bitrate=6500 / ratetol=1.0 / qcomp=0.70 / qpmin=0 / qpmax=69 / qpstep=4 / cplxblur=20.0 / qblur=0.5 / ip_ratio=1.20 / pb_ratio=1.20 / aq=3:0.85
Language : English
Default : Yes
Forced : No
Audio #1
ID : 2
Format : AC-3
Format/Info : Audio Coding 3
Format settings, Endianness : Big
Codec ID : A_AC3
Duration : 2 h 34 min
Bit rate mode : Constant
Bit rate : 640 kb/s
Channel(s) : 6 channels
Channel positions : Front: L C R, Side: L R, LFE
Sampling rate : 48.0 kHz
Frame rate : 31.250 FPS (1536 SPF)
Bit depth : 16 bits
Compression mode : Lossy
Stream size : 708 MiB (8%)
Title : Dub [License]
Language : Russian
Service kind : Complete Main
Default : Yes
Forced : No
Audio #2
ID : 3
Format : AC-3
Format/Info : Audio Coding 3
Format settings, Endianness : Big
Codec ID : A_AC3
Duration : 2 h 34 min
Bit rate mode : Constant
Bit rate : 640 kb/s
Channel(s) : 6 channels
Channel positions : Front: L C R, Side: L R, LFE
Sampling rate : 48.0 kHz
Frame rate : 31.250 FPS (1536 SPF)
Bit depth : 16 bits
Compression mode : Lossy
Stream size : 708 MiB (8%)
Title : Original
Language : English
Service kind : Complete Main
Default : No
Forced : No
Text #1
ID : 4
Format : UTF-8
Codec ID : S_TEXT/UTF8
Codec ID/Info : UTF-8 Plain Text
Duration : 2 h 33 min
Bit rate : 1 b/s
Count of elements : 34
Stream size : 1.29 KiB (0%)
Title : Forced
Language : Russian
Default : Yes
Forced : No
Text #2
ID : 5
Format : UTF-8
Codec ID : S_TEXT/UTF8
Codec ID/Info : UTF-8 Plain Text
Duration : 2 h 33 min
Bit rate : 96 b/s
Count of elements : 2321
Stream size : 109 KiB (0%)
Title : Full
Language : Russian
Default : No
Forced : No
Text #3
ID : 6
Format : UTF-8
Codec ID : S_TEXT/UTF8
Codec ID/Info : UTF-8 Plain Text
Duration : 2 h 25 min
Bit rate : 73 b/s
Count of elements : 2617
Stream size : 78.3 KiB (0%)
Title : SDH
Language : English
Default : No
Forced : No
Menu
00:00:00.000 : en:00:00:00.000
00:06:36.104 : en:00:06:36.104
00:14:03.468 : en:00:14:03.468
00:21:45.763 : en:00:21:45.763
00:27:53.255 : en:00:27:53.255
00:33:53.907 : en:00:33:53.907
00:40:08.906 : en:00:40:08.906
00:46:58.941 : en:00:46:58.941
00:53:25.786 : en:00:53:25.786
01:02:02.928 : en:01:02:02.928
01:08:47.081 : en:01:08:47.081
01:14:37.223 : en:01:14:37.223
01:20:10.180 : en:01:20:10.180
01:29:13.390 : en:01:29:13.390
01:37:59.499 : en:01:37:59.499
01:44:57.583 : en:01:44:57.583
01:51:15.502 : en:01:51:15.502
01:57:59.447 : en:01:57:59.447
02:06:09.729 : en:02:06:09.729
02:10:54.096 : en:02:10:54.096
02:16:01.153 : en:02:16:01.153
02:21:42.619 : en:02:21:42.619
02:25:17.292 : en:02:25:17.292
[Profile] [PM]
Display posts:    
Reply to topic

Current time is: 09-Dec 03:57

All times are UTC + 3



You cannot post new topics in this forum
You cannot reply to topics in this forum
You cannot edit your posts in this forum
You cannot delete your posts in this forum
You cannot vote in polls in this forum
You cannot attach files in this forum
You cannot download files in this forum