Уральские пельмени. Муж на щас (2019.04.05) (2019) WEB-DLRip 1080p

Reply to topic
 
Author Message

oleg8 ®

Gender: Male

Longevity: 1 year 6 months

Posts: 1942

Location: Украина

Post 06-Apr-2019 13:32

[Quote]

Уральские пельмени. Муж на щас (2019.04.05) Год выпуска: 2019
Жанр: Юмор
Выпущено: Россия,Телекомпания: СТС
Режиссер: Константин Куц, Леонид Коновалов, Анастасия Гуделова
В ролях: Дмитрий Брекоткин, Сергей Ершов, Сергей Исаев, Сергей Калугин, Вячеслав Мясников, Александр Попов, Андрей Рожков, Дмитрий Соколов, Максим Ярица, Юля Михалкова
О фильме: Им платят за косяки, а не прибитая полочка для них, как вызов, Они вырастили руки откуда надо, причем сразу золотые, По утрам они слушают трели дрели, а на работе встречаются с “болгаркой”, Они отремонтируют ваше настроение в шоу «МУЖ НА ЩАС»
Качество: WEB-DLRip 1080p
Видео: AVC/H.264,1920x1080 (16:9),~4615 Kbps
Аудио: AC3,2 ch,192 Kbps
Продолжительность: 01:12:25
Перевод : Не требуется [Русский]
Cубтитры: нет

Скриншоты

MediaInfo

Общее
Уникальный идентификатор : 228483041027145695012363856975226804762 (0xABE43BA9283CEDF65A1E243FE3811A1A)
Полное имя : G:\Муж на щас. Уральские пельмени (05.04.2019).by.Алехаndr.mkv
Формат : Matroska
Версия формата : Version 4
Размер файла : 2,48 Гбайт
Продолжительность : 1 ч. 12 м.
Общий поток : 4907 Кбит/сек
Программа кодирования : Lavf57.71.100
Библиотека кодирования : Lavf57.71.100
ErrorDetectionType : Per level 1
Видео
Идентификатор : 1
Формат : AVC
Формат/Информация : Advanced Video Codec
Профиль формата : High@L4
Настройки формата : CABAC / 3 Ref Frames
Параметр CABAC формата : Да
Параметр RefFrames формата : 3 кадра
Идентификатор кодека : V_MPEG4/ISO/AVC
Продолжительность : 1 ч. 12 м.
Битрейт : 4617 Кбит/сек
Ширина : 1920 пикселей
Высота : 1080 пикселей
Соотношение сторон : 16:9
Режим частоты кадров : Постоянный
Частота кадров : 25,000 кадров/сек
Цветовое пространство : YUV
Субдискретизация насыщенности : 4:2:0
Битовая глубина : 8 бит
Тип развёртки : Прогрессивная
Бит/(Пиксели*Кадры) : 0.089
Размер потока : 2,34 Гбайт (94%)
Default : Да
Forced : Нет
Цветовой диапазон : Limited
Основные цвета : BT.709
Характеристики трансфера : BT.709
Коэффициенты матрицы : BT.709
Аудио
Идентификатор : 2
Формат : AC-3
Формат/Информация : Audio Coding 3
Коммерческое название : Dolby Digital
Идентификатор кодека : A_AC3
Продолжительность : 1 ч. 12 м.
Вид битрейта : Постоянный
Битрейт : 192 Кбит/сек
Каналы : 2 канала
Channel layout : L R
Частота : 48,0 КГц
Частота кадров : 31,250 кадров/сек (1536 SPF)
Битовая глубина : 16 бит
Метод сжатия : С потерями
Размер потока : 99,5 Мбайт (4%)
ServiceKind/String : Complete Main
Default : Да
Forced : Нет


Last edited by oleg8 on 2019-04-06 20:21; edited 3 times in total
[Profile] [PM]
Display posts:    
Reply to topic

Current time is: 31-Oct 03:57

All times are UTC + 3



You cannot post new topics in this forum
You cannot reply to topics in this forum
You cannot edit your posts in this forum
You cannot delete your posts in this forum
You cannot vote in polls in this forum
You cannot attach files in this forum
You cannot download files in this forum