Чудачество любви не помеха! (фильм) / Eiga Chuunibyou demo Koi ga Shitai! Take on Me (2018) BDRip 1080p

Reply to topic
 
Author Message

Monk ®

Gender: Male

Longevity: 1 year

Posts: 9115

Location: Казань

Post 20-Apr-2019 03:30

[Quote]

Чудачество любви не помеха! (фильм) / Eiga Chuunibyou demo Koi ga Shitai! Take on Me Год выпуска: 2018
Жанр: Комедия, драма, полнометражный
Выпущено: Япония, Kyoto Animation
Режиссер: Тацуя Исихара
В ролях: Дзюн Фукуяма, Маая Утида, Тинацу Акасаки, Адзуми Асакура, Сумирэ Уэсака
О фильме: Перед зрителем — новая история Юты и Рикки во время их третьего года обучения в старшей школе. Одним весенним днём Тока заявляет, что собирается забрать Рикку в Италию, так как её работа в местном ресторане наладилась, и она считает, что они должны жить там вместе, как семья. Току также беспокоит, что Рикка недостаточно умна, чтобы поступить в один из университетов Японии. В это время друзья из клуба предлагают Юте, который не хочет расставаться со своей возлюбленной, сбежать вместе с ней. Так, эти события и положили начало бегству двух влюблённых по всей Японии.
Качество: BDRip 1080p
Видео: MPEG-4 AVC, 2994 Кбит/с, 1920x1080
Аудио: Русский (AAC, 2 ch, ~ 128 Кбит/с)
Продолжительность: 01:33:41
Перевод: Любительский двухголосый [Azazel, Nika Lenina]

Скриншоты



MediaInfo

[AniDub]_Eiga_Chuunibyou_demo_Koi_ga_Shitai!_Take_on_Me_[BDRip_1920x1080_x264_Aac]_[Azazel_Nika_Lenina].mp4
Формат : MPEG-4
Профиль формата : Base Media
Идентификатор кодека : isom (isom)
Размер файла : 2,05 Гбайт
Продолжительность : 1 ч. 33 м.
Режим общего битрейта : Переменный
Общий поток : 3126 Кбит/сек
Дата кодирования : UTC 2018-10-29 19:03:51
Дата пометки : UTC 2018-10-29 19:03:51
Программа кодирования : Yamb 2.1.0.0 [http://yamb.unite-video.com]
Видео
Идентификатор : 1
Формат : AVC
Формат/Информация : Advanced Video Codec
Профиль формата : Main@L4.1
Параметр CABAC формата : Да
Параметр ReFrames формата : 2 кадра
Режим смешивания : Container profile=Baseline@3.0
Идентификатор кодека : avc1
Идентификатор кодека/Информация : Advanced Video Coding
Продолжительность : 1 ч. 33 м.
Битрейт : 2994 Кбит/сек
Максимальный битрейт : 43,7 Мбит/сек
Ширина : 1920 пикселей
Высота : 1080 пикселей
Соотношение сторон : 16:9
Режим частоты кадров : Постоянный
Частота кадров : 24,000 кадра/сек
Цветовое пространство : YUV
Субдискретизация насыщенности : 4:2:0
Битовая глубина : 8 бит
Тип развёртки : Прогрессивная
Бит/(Пиксели*Кадры) : 0.060
Размер потока : 1,96 Гбайт (96%)
Дата пометки : UTC 2018-10-29 19:03:55
Аудио
Идентификатор : 2
Формат : AAC
Формат/Информация : Advanced Audio Codec
Профиль формата : LC
Идентификатор кодека : 40
Продолжительность : 1 ч. 33 м.
Вид битрейта : Переменный
Битрейт : 128 Кбит/сек
Максимальный битрейт : 135 Кбит/сек
Каналы : 2 канала
Расположение каналов : Front: L R
Частота : 48,0 КГц
Частота кадров : 46,875 кадров/сек (1024 spf)
Метод сжатия : С потерями
Размер потока : 85,8 Мбайт (4%)
Язык : English
Дата кодирования : UTC 2018-10-29 19:03:53
Дата пометки : UTC 2018-10-29 19:03:55
[Profile] [PM]
Display posts:    
Reply to topic

Current time is: 20-Nov 04:32

All times are UTC + 3



You cannot post new topics in this forum
You cannot reply to topics in this forum
You cannot edit your posts in this forum
You cannot delete your posts in this forum
You cannot vote in polls in this forum
You cannot attach files in this forum
You cannot download files in this forum