Крылья империи [1-12 серии из 12] (2017) HDTV 1080i от GeneralFilm

Reply to topic
 
Author Message

olegka7373 ®

Gender: Male

Longevity: 11 months 2 days

Posts: 219

Location: Россия, Новокузнецк

Post 10-Jul-2019 20:03

[Quote]

Крылья империи
Год выпуска: 2017
Жанр: Драма, исторический
Выпущено: Россия, Триикс Медиа, по заказу АО «Первый канал»
Режиссер: Игорь Копылов
В ролях: Милош Бикович, Ксения Лукьянчикова, Юрий Колокольников, Григорий Некрасов, Александр Бухаров, Александр Лыков, Даниил Кокин, Вячеслав Чепурченко, Михаил Елисеев, Екатерина Проскурина, Евгений Антропов, Иван Колесников, Роман Полянский, Игорь Головин, Игорь Иванов, Наталья Данилова, Николай Козак, Юрий Уткин, Юрий Ицков, Любомирас Лауцявичюс, Анатолий Хропов, Виталий Коваленко, Евгений Миллер, Илья Шидловский, Дарья Румянцева, Юлия Марченко, Максим Дахненко, Эмилия Спивак, Дмитрий Сутырин, Андрей Смелов, Томас Эслон
О фильме: Действие картины охватывает период времени с 1913 до 1921 года, отражая драматические события российской истории, ураганом пронёсшиеся через судьбы людей и страны, оставив после себя для одних руины прошлого, для других - фундамент для новой жизни. История начинается в 1913 году празднованием 300-летия дома Романовых и заканчивается событиями 1921 года, когда была поставлена кровавая точка в окончании гражданской войны, а именно подавлением Кронштадтского мятежа.

Качество: HDTV (1080i)
Видео: MPEG-TS AVC, ~ 5400 Кбит/с, 1920x1080, 25 кадр/с
Аудио: Русский (AC3, 2 ch, 384 Кбит/с), (MP2, 2 ch, 192 Кбит/с)
Продолжительность: 12 х ~ 00:55:00
Перевод: Не требуется
Субтитры: нет

Скриншоты


MediaInfo

Общее
Идентификатор : 1 (0x1)
Полное имя : D:\Запись\Krylja imperii.HDTV(1080i).GeneralFilm\01.Krylja imperii.HDTV(1080i).GeneralFilm.ts
Формат : MPEG-TS
Размер файла : 2,44 Гбайт
Продолжительность : 56 м. 13 с.
Режим общего битрейта : Переменный
Общий поток : 6218 Кбит/сек
Видео
Идентификатор : 1904 (0x770)
Идентификатор меню : 80 (0x50)
Формат : AVC
Формат/Информация : Advanced Video Codec
Профиль формата : High@L4
Параметр CABAC формата : Да
Параметр ReFrames формата : 3 кадра
Идентификатор кодека : 27
Продолжительность : 56 м. 13 с.
Битрейт : 5329 Кбит/сек
Ширина : 1920 пикселей
Высота : 1080 пикселей
Соотношение сторон : 16:9
Частота кадров : 25,000 кадров/сек
Стандарт вещания : Component
Цветовое пространство : YUV
Субдискретизация насыщенности : 4:2:0
Битовая глубина : 8 бит
Тип развёртки : Чересстрочная
Метод сохранения типа развёртки : Раздельные поля
Порядок развёртки : Верхнее поле первое
Бит/(Пиксели*Кадры) : 0.103
Размер потока : 2,09 Гбайт (86%)
Цветовой диапазон : Limited
Основные цвета : BT.709
Характеристики трансфера : BT.709
Коэффициенты матрицы : BT.709
Аудио #1
Идентификатор : 2904 (0xB58)
Идентификатор меню : 80 (0x50)
Формат : AC-3
Формат/Информация : Audio Coding 3
Расширение режима : CM (complete main)
Параметр Endianness формата : Big
Идентификатор кодека : 6
Продолжительность : 56 м. 13 с.
Вид битрейта : Постоянный
Битрейт : 384 Кбит/сек
Каналы : 6 каналов
Расположение каналов : Front: L C R, Side: L R, LFE
Частота : 48,0 КГц
Частота кадров : 31,250 кадров/сек (1536 spf)
Битовая глубина : 16 бит
Метод сжатия : С потерями
Задержка видео : -40 мс.
Размер потока : 154 Мбайт (6%)
Язык : Russian
Аудио #2
Идентификатор : 2905 (0xB59)
Идентификатор меню : 80 (0x50)
Формат : MPEG Audio
Версия формата : Version 1
Профиль формата : Layer 2
Идентификатор кодека : 3
Продолжительность : 56 м. 13 с.
Вид битрейта : Постоянный
Битрейт : 192 Кбит/сек
Каналы : 2 канала
Частота : 48,0 КГц
Метод сжатия : С потерями
Задержка видео : -40 мс.
Размер потока : 77,2 Мбайт (3%)
Язык : Russian
Общее
Идентификатор : 1 (0x1)
Полное имя : D:\Запись\Krylja imperii.HDTV(1080i).GeneralFilm\02.Krylja imperii.HDTV(1080i).GeneralFilm.ts
Формат : MPEG-TS
Размер файла : 2,48 Гбайт
Продолжительность : 54 м. 36 с.
Режим общего битрейта : Переменный
Общий поток : 6493 Кбит/сек
Видео
Идентификатор : 1904 (0x770)
Идентификатор меню : 80 (0x50)
Формат : AVC
Формат/Информация : Advanced Video Codec
Профиль формата : High@L4
Параметр CABAC формата : Да
Параметр ReFrames формата : 3 кадра
Параметр GOP формата : M=3, N=23
Идентификатор кодека : 27
Продолжительность : 54 м. 36 с.
Битрейт : 5590 Кбит/сек
Ширина : 1920 пикселей
Высота : 1080 пикселей
Соотношение сторон : 16:9
Частота кадров : 25,000 кадров/сек
Стандарт вещания : Component
Цветовое пространство : YUV
Субдискретизация насыщенности : 4:2:0
Битовая глубина : 8 бит
Тип развёртки : Чересстрочная
Метод сохранения типа развёртки : Раздельные поля
Порядок развёртки : Верхнее поле первое
Бит/(Пиксели*Кадры) : 0.108
Размер потока : 2,13 Гбайт (86%)
Цветовой диапазон : Limited
Основные цвета : BT.709
Характеристики трансфера : BT.709
Коэффициенты матрицы : BT.709
Аудио #1
Идентификатор : 2904 (0xB58)
Идентификатор меню : 80 (0x50)
Формат : AC-3
Формат/Информация : Audio Coding 3
Расширение режима : CM (complete main)
Параметр Endianness формата : Big
Идентификатор кодека : 6
Продолжительность : 54 м. 36 с.
Вид битрейта : Постоянный
Битрейт : 384 Кбит/сек
Каналы : 6 каналов
Расположение каналов : Front: L C R, Side: L R, LFE
Частота : 48,0 КГц
Частота кадров : 31,250 кадров/сек (1536 spf)
Битовая глубина : 16 бит
Метод сжатия : С потерями
Размер потока : 150 Мбайт (6%)
Язык : Russian
Аудио #2
Идентификатор : 2905 (0xB59)
Идентификатор меню : 80 (0x50)
Формат : MPEG Audio
Версия формата : Version 1
Профиль формата : Layer 2
Идентификатор кодека : 3
Продолжительность : 54 м. 36 с.
Вид битрейта : Постоянный
Битрейт : 192 Кбит/сек
Каналы : 2 канала
Частота : 48,0 КГц
Метод сжатия : С потерями
Размер потока : 75,0 Мбайт (3%)
Язык : Russian

Внимание! Раздача ведётся путём добавления новых серий

Раздача ведётся путём добавления новых серий, при каждом добавлении создаётся новый торрент. Чтобы начать докачку новой серии, пользователям необходимо сделать следующее:
- Остановить скачивание.
- Удалить старый торрент у себя из клиента (старые серии удалять не надо).
- Скачать новый торрент и запустить его у себя в клиенте вместо старого, при этом указать клиенту путь в старую папку куда и должно происходить скачивание новых серий.
Ваш клиент при этом должен произвести хеширование (проверку) старой папки (если не производит сам - помогите ему сделать это), и будет докачивать только те серии которых у вас ещё нет. Старые серии при этом не удаляются, а продолжают раздаваться!
Если вы уже удалили старые серии, то предотвратить повторную закачку старых серий можно, отжав галочку в соответствующих местах при запуске нового торрента. По возможности, желательно не удалять старые серии как можно дольше, чтобы релизер не столько продолжал раздавать старые серии, а смог сконцентрироваться на новых.
Релиз:
[Profile] [PM]
Display posts:    
Reply to topic

Current time is: 15-Oct 22:17

All times are UTC + 3



You cannot post new topics in this forum
You cannot reply to topics in this forum
You cannot edit your posts in this forum
You cannot delete your posts in this forum
You cannot vote in polls in this forum
You cannot attach files in this forum
You cannot download files in this forum