Рая знает всё! (1-50 серия из 50) (2019) WEBRip-AVC от Files-x

Reply to topic
 
Author Message

Серый1779 ®

Gender: Male

Longevity: 1 year

Posts: 738

Location: Украина

Post 23-Jul-2019 00:03

[Quote]

Рая знает всё! Год выпуска: 2019
Жанр: Детектив, комедия, мелодрама
Выпущено:Россия, «Нон-Стоп Продакшн»
Режиссер: Руслан Паушу, Анатолий Артамонов
В ролях: Анастасия Веденская, Сергей Губанов, Сергей Рудзевич, Виолетта Давыдовская, Любовь Германова, Елена Волхонская, Ирина Пулина, Елена Муравьёва, Евгения Шипова, Елена Полякова, Валерия Яковлева, Елена Дубровская, Дмитрий Калистратов, Андрей Москвичёв, Роман Гредин, Сергей Сафронов, Анастасия Теплинская, Александр Никольский, Юлия Акимова, Сергей Маркелов, Марина Канивец, Анна Калабина, Ксения Ильясова, Максим Тригубчак, Валерий Новиков, Елена Соловьева, Денис Первомайский, Андрей Гусев, Александр Коротков, Константин Хром, Олеся Кыдык, Александр Мосолов (I), Валерия Жидкова, Григорий Зельцер, Алёна Фалалеева, Артём Манукян
О фильме: Рая Полуйчик – женщина энергичная и активная. Она работает парикмахером в салоне эконом-класса, очень хочет замуж и детишек, но на любовном фронте терпит поражение за поражением. Ее новая надежда – интеллигентный участковый Владимир Костюков, прибывший из Москвы. Несмотря на сопротивление, Рая немедленно берет его под крыло, помогая в быту и в работе. У нее есть три преимущества: обширные связи в лице клиентов и местных жителей, бытовая смекалка, помогающая с блеском расследовать преступления и ведомственная квартира, доставшаяся ей в наследство от отца – так же участкового, в которую и вселяют Костюкова. С этого корабля ему просто некуда деться!
Качество: WEBRip-AVC
Видео: MPEG-4 AVC, ~ 1600 Кбит/с, 1024x576, 25 кадр/с
Аудио: AC3, 2 ch, 192 Кбит/с
Продолжительность: 50 х ~ 00:49:00
Перевод: Не требуется
Субтитры: нет

Скриншоты


MediaInfo

General
Unique ID : 176222721853185643717581622142621372499 (0x849342FE1B17EAC3852B44807466D053)
Complete name : F:\Рая знает всё!.(2019).WEBRip.(AVC).Files-x\01.Рая знает всё.(2019).WEBRip.(AVC).by.Серый1779.Files-x.mkv
Format : Matroska
Format version : Version 2
File size : 625 MiB
Duration : 48 min 45 s
Overall bit rate : 1 792 kb/s
Encoded date : UTC 2019-07-22 20:47:29
Writing application : mkvmerge v7.8.0 ('River Man') 32bit built on Apr 3 2015 12:11:22
Writing library : libebml v1.3.1 + libmatroska v1.4.2
Video
ID : 1
Format : AVC
Format/Info : Advanced Video Codec
Format profile : High@L4.1
Format settings : CABAC / 9 Ref Frames
Format settings, CABAC : Yes
Format settings, RefFrames : 9 frames
Codec ID : V_MPEG4/ISO/AVC
Duration : 48 min 45 s
Bit rate : 1 600 kb/s
Width : 1 024 pixels
Height : 576 pixels
Display aspect ratio : 16:9
Frame rate mode : Constant
Frame rate : 25.000 FPS
Color space : YUV
Chroma subsampling : 4:2:0
Bit depth : 8 bits
Scan type : Progressive
Bits/(Pixel*Frame) : 0.109
Stream size : 546 MiB (87%)
Writing library : x264 core 146 r2538 121396c
Encoding settings : cabac=1 / ref=9 / deblock=1:-2:-1 / analyse=0x3:0x133 / me=umh / subme=9 / psy=1 / psy_rd=1.00:0.15 / mixed_ref=1 / me_range=32 / chroma_me=1 / trellis=2 / 8x8dct=1 / cqm=0 / deadzone=21,11 / fast_pskip=0 / chroma_qp_offset=-3 / threads=18 / lookahead_threads=3 / sliced_threads=0 / nr=0 / decimate=1 / interlaced=0 / bluray_compat=0 / constrained_intra=0 / bframes=9 / b_pyramid=2 / b_adapt=2 / b_bias=0 / direct=1 / weightb=1 / open_gop=0 / weightp=2 / keyint=250 / keyint_min=25 / scenecut=40 / intra_refresh=0 / rc=2pass / mbtree=0 / bitrate=1600 / ratetol=1.0 / qcomp=0.60 / qpmin=0 / qpmax=69 / qpstep=4 / cplxblur=20.0 / qblur=0.5 / ip_ratio=1.40 / pb_ratio=1.30 / aq=2:1.00
Default : Yes
Forced : No
Color range : Limited
Color primaries : BT.709
Transfer characteristics : BT.709
Matrix coefficients : BT.709
Audio
ID : 2
Format : AC-3
Format/Info : Audio Coding 3
Format settings, Endianness : Big
Codec ID : A_AC3
Duration : 48 min 45 s
Bit rate mode : Constant
Bit rate : 192 kb/s
Channel(s) : 2 channels
Channel positions : Front: L R
Sampling rate : 48.0 kHz
Frame rate : 31.250 FPS (1536 SPF)
Bit depth : 16 bits
Compression mode : Lossy
Stream size : 66.9 MiB (11%)
Service kind : Complete Main
Default : Yes
Forced : No
Релиз от:
[Profile] [PM]
Display posts:    
Reply to topic

Current time is: 11-Dec 15:45

All times are UTC + 3



You cannot post new topics in this forum
You cannot reply to topics in this forum
You cannot edit your posts in this forum
You cannot delete your posts in this forum
You cannot vote in polls in this forum
You cannot attach files in this forum
You cannot download files in this forum