Битва экстрасенсов [20 сезон: 1-14 серии из 14] (2019) HDTV 1080p от R.G.Generalfilm

Reply to topic
 
Author Message

White Smoke ®

Gender: Male

Longevity: 1 year 2 months

Posts: 116

Post 29-Sep-2019 05:22

[Quote]

Битва экстрасенсов Год выпуска: 2019
Жанр: Реалити-шоу
Выпущено: Россия Телеканал ТНТ
Режиссер: Фёдор Торстенсен , Ольга Шмид , Олег Чаурс
Ведущий: Марат Башаров
О фильме: Паранормальное шоу канала ТНТ об экстрасенсах, магах, ясновидящих, гадалках и колдунах. «Битва экстрасенсов 18 сезон» – продолжение рейтингового российского шоу «Битва экстрасенсов», которое выходит с 2007 года на канале ТНТ. Создатели проекта в 20-м сезоне вновь подготовили для телезрителей встречи с удивительными людьми, обладающими уникальными способностями.
Качество: HDTV 1080p
Видео: MPEG-4 AVC,1920x1080 (16:9), 7050 kbps, 25 fps, 0,136 bpp
Аудио: AC3 / 2.0 / 48 kHz / 192 kbps
Продолжительность: ~01:09:55
Перевод : Не требуется
Cубтитры: нет

Скриншоты

MediaInfo

General
Unique ID : 186902740241472396273520075901367603977 (0x8C9C288DAECC8D69A89DF164FE65D309)
Complete name : E:\Запись с тв\Bitva ekstrasensov S20 2019.HDTV 1080p.RG GeneralFilm\Bitva ekstrasensov.s20.e01.2019.HDTV 1080p.by.White Smoke.R.G.Generalfilm.mkv
Format : Matroska
Format version : Version 4 / Version 2
File size : 3.53 GiB
Duration : 1 h 9 min
Overall bit rate mode : Constant
Overall bit rate : 7 231 kb/s
Movie name : Bitva ekstrasensov.s20.e01.2019.HDTV 1080p.by.White Smoke.R.G.Generalfilm.mkv
Encoded date : UTC 2019-09-29 01:24:41
Writing application : mkvmerge v6.8.0 ('Theme for Great Cities') 64bit built on Mar 2 2014 21:34:26
Writing library : libebml v1.3.0 + libmatroska v1.4.1
Cover : Yes
Attachments : cover.jpg
Video
ID : 1
Format : AVC
Format/Info : Advanced Video Codec
Format profile : High@L4.1
Format settings : CABAC / 3 Ref Frames
Format settings, CABAC : Yes
Format settings, ReFrames : 3 frames
Codec ID : V_MPEG4/ISO/AVC
Duration : 1 h 9 min
Bit rate mode : Constant
Bit rate : 7 051 kb/s
Width : 1 920 pixels
Height : 1 080 pixels
Display aspect ratio : 16:9
Frame rate mode : Constant
Frame rate : 25.000 FPS
Standard : PAL
Color space : YUV
Chroma subsampling : 4:2:0
Bit depth : 8 bits
Scan type : Progressive
Bits/(Pixel*Frame) : 0.136
Stream size : 3.37 GiB (95%)
Default : Yes
Forced : No
Color range : Limited
Color primaries : BT.709
Transfer characteristics : BT.709
Matrix coefficients : BT.709
Audio
ID : 2
Format : AC-3
Format/Info : Audio Coding 3
Commercial name : Dolby Digital
Codec ID : A_AC3
Duration : 1 h 9 min
Bit rate mode : Constant
Bit rate : 192 kb/s
Channel(s) : 2 channels
Channel layout : L R
Sampling rate : 48.0 kHz
Frame rate : 31.250 FPS (1536 SPF)
Bit depth : 16 bits
Compression mode : Lossy
Stream size : 96.0 MiB (3%)
Service kind : Complete Main
Default : Yes
Forced : No
Релиз от: за Постер спасибо irinadyach
[Profile] [PM]

White Smoke ®

Gender: Male

Longevity: 1 year 2 months

Posts: 116

Post 30-Dec-2019 10:56 (after 3 months 1 day)

[Quote]

Финал сезона всем приятного просмотра с наступающим новым годом
[Profile] [PM]
Display posts:    
Reply to topic

Current time is: 29-Jan 22:58

All times are UTC + 3



You cannot post new topics in this forum
You cannot reply to topics in this forum
You cannot edit your posts in this forum
You cannot delete your posts in this forum
You cannot vote in polls in this forum
You cannot attach files in this forum
You cannot download files in this forum