#СеняФедя [3 сезон: 1-5 серии из 12] (2019) WEB-DL 720p от Files-x

Reply to topic
 
Author Message

bond74 ®

Gender: Male

Longevity: 11 months

Posts: 660

Post 07-Oct-2019 19:29

[Quote]

#СеняФедя Год выпуска: 2019
Жанр: Комедия
Выпущено: Россия, PICK UP FILM по заказу телеканала СТС
Режиссер: Антон Федотов
В ролях: Сергей Лавыгин, Михаил Тарабукин, Анна Бегунова, Ирина Серова, Леся Кудряшова, Сергей Марухин, Дмитрий Мазуров, Анастасия Шумилкина, Юлия Беляева, Никита Абдулов
О фильме: Сеня и Федя решают открыть собственный бизнес — закусочную на колёсах. Совместная работа не ладится с первого дня, но разойтись друзья не могут, ведь ничто так не объединяет людей, как совместный кредит. Попав в мир деловых отношений, парни сталкиваются не только с проблемой поиска компромиссов, но и с крупной сетью фудтраков, стремящихся вытеснить с улиц всех конкурентов. На фоне борьбы с акулами гастрономического бизнеса друзья не заметят, как поменяются ролями на личной «кухне»: семьянин Сеня попробует на вкус холостяцкую жизнь, а бабник Федя отправится на поиски тихой семейной гавани.

Качество: WEB-DL 720p
Видео: MPEG-4 AVC, ~ 3200 Кбит/с, 1280x720
Аудио: AC3, 2 ch, 192 Кбит/с
Продолжительность: 5 х ~ 00:25:00
Язык: Русский

Скриншоты

MediaInfo

General
Unique ID : 233794538078954132653093630880300261977 (0xAFE330AF1D756EFDBEEF280A0EE1E259)
Complete name : H:\fiiles x\СеняФедя 03.2019.WEB-DL 720p.Files-x\01. СеняФедя 03.2019.WEB-DL 720p.Files-x.mkv
Format : Matroska
File size : 564 MiB
Duration : 24mn 53s
Overall bit rate : 3 169 Kbps
Encoded date : UTC 2019-10-07 15:39:39
Writing application : mkvmerge v7.8.0 ('River Man') 32bit built on Apr 3 2015 12:11:22
Writing library : libebml v1.3.1 + libmatroska v1.4.2
Video
ID : 1
Format : AVC
Format/Info : Advanced Video Codec
Format profile : High@L4.1
Format settings, CABAC : Yes
Format settings, ReFrames : 5 frames
Format settings, GOP : M=4, N=50
Codec ID : V_MPEG4/ISO/AVC
Duration : 24mn 53s
Bit rate : 2 914 Kbps
Width : 1 280 pixels
Height : 720 pixels
Display aspect ratio : 16:9
Frame rate : 25.000 fps
Standard : PAL
Color space : YUV
Chroma subsampling : 4:2:0
Bit depth : 8 bits
Scan type : Progressive
Bits/(Pixel*Frame) : 0.126
Stream size : 519 MiB (92%)
Color primaries : BT.709-5, BT.1361, IEC 61966-2-4, SMPTE RP177
Transfer characteristics : BT.709-5, BT.1361
Matrix coefficients : BT.709-5, BT.1361, IEC 61966-2-4 709, SMPTE RP177
Audio
ID : 2
Format : AC-3
Format/Info : Audio Coding 3
Mode extension : CM (complete main)
Codec ID : A_AC3
Duration : 24mn 53s
Bit rate mode : Constant
Bit rate : 192 Kbps
Channel(s) : 2 channels
Channel positions : Front: L R
Sampling rate : 48.0 KHz
Bit depth : 16 bits
Compression mode : Lossy
Stream size : 34.2 MiB (6%)
Релиз от:
[Profile] [PM]
Display posts:    
Reply to topic

Current time is: 15-Oct 12:42

All times are UTC + 3



You cannot post new topics in this forum
You cannot reply to topics in this forum
You cannot edit your posts in this forum
You cannot delete your posts in this forum
You cannot vote in polls in this forum
You cannot attach files in this forum
You cannot download files in this forum