Смотрящая вдаль [1-8 серии из 12] (2019) WEB-DLRip от GeneralFilm

Reply to topic
 
Author Message

vsobbol ®

Gender: Male

Longevity: 10 months 29 days

Posts: 302

Location: Донецк

Post 09-Oct-2019 00:22

[Quote]

Смотрящая вдаль
Год выпуска: 2019
Жанр: Детектив, мистика
Выпущено: Россия, Film.UA Group, Intra Communications
Режиссер: Владимир Мельниченко
В ролях: Елена Радевич, Антон Батырев, Кирилл Жандаров, Сергей Деревянко, Светлана Зельбет, Константин Октябрьский, Сергей Деньга
О фильме: У девушки по имени Анна совсем внезапно обнаруживается дар, позволяющий ей, даже помимо воли, предвидеть свое и чужое будущее. Тут в жизни Ани случается непредвиденное горе и она узнает об аресте своего любимого Саши прямо перед тем, как должно состояться их бракосочетание. Причем его, совершенно честного парня, хотят обвинить в перевозке наркотических веществ. Саше, планирующему хоть как-то доказать собственную непричастность к контрабанде, все-таки удается сбежать. Но теперь Анна обеспокоена еще больше, так как в видениях ей была четко показан гибель Александра, а убийцу она, как назло, разглядеть так и не смогла. Понимая, что время довольно-таки ограничено, Аня решила привлечь к делу своего старого приятеля Алексея, который служит в одном из отделов полиции.
Качество: WEB-DLRip
Видео: XviD build 73, 720x400 (16:9), 25.000 fps, ~ 1310 Kbps (~ 0.180 bit/pixel)
Аудио: 48.0 kHz, AC3, 2/0 ch, 192 kbps
Продолжительность: 8 х ~ 00:51:00
Перевод: Не требуется [Русский]
Cубтитры: нет

Скриншоты

MediaInfo

General
Complete name : D:\Razdachi\Smotrjashaja.Vdalj.2019.WEB-DLRip.GeneralFilm\Smotrjashaja.Vdalj.e01.avi
Format : AVI
Format/Info : Audio Video Interleave
File size : 557 MiB
Duration : 51 min 30 s
Overall bit rate : 1 513 kb/s
Writing application : VirtualDubMod 1.5.10.3 | www.virtualdub-fr.org || (build 2550/release)
Writing library : VirtualDubMod build 2550/release
Video
ID : 0
Format : MPEG-4 Visual
Format profile : Advanced Simple@L5
Format settings : BVOP1 / Custom Matrix
Format settings, BVOP : 1
Format settings, QPel : No
Format settings, GMC : No warppoints
Format settings, Matrix : Custom
Codec ID : XVID
Codec ID/Hint : XviD
Duration : 51 min 30 s
Bit rate : 1 311 kb/s
Width : 720 pixels
Height : 400 pixels
Display aspect ratio : 16:9
Frame rate : 25.000 FPS
Color space : YUV
Chroma subsampling : 4:2:0
Bit depth : 8 bits
Scan type : Progressive
Compression mode : Lossy
Bits/(Pixel*Frame) : 0.182
Stream size : 483 MiB (87%)
Writing library : XviD 73
Audio
ID : 1
Format : AC-3
Format/Info : Audio Coding 3
Commercial name : Dolby Digital
Codec ID : 2000
Duration : 51 min 30 s
Bit rate mode : Constant
Bit rate : 192 kb/s
Channel(s) : 2 channels
Channel layout : L R
Sampling rate : 48.0 kHz
Frame rate : 31.250 FPS (1536 SPF)
Bit depth : 16 bits
Compression mode : Lossy
Stream size : 70.7 MiB (13%)
Alignment : Split accross interleaves
Interleave, duration : 40 ms (1.00 video frame)
Interleave, preload duratio : 500 ms
Service kind : Complete Main
Релиз от:
[Profile] [PM]
Display posts:    
Reply to topic

Current time is: 15-Oct 11:25

All times are UTC + 3



You cannot post new topics in this forum
You cannot reply to topics in this forum
You cannot edit your posts in this forum
You cannot delete your posts in this forum
You cannot vote in polls in this forum
You cannot attach files in this forum
You cannot download files in this forum