Пёс [5 сезон: 1-18 серии из 20] (2020) WEBRip от Files-x

Reply to topic
 
Author Message

bond74 ®

Gender: Male

Longevity: 1 year 10 months

Posts: 864

Post 03-Dec-2019 12:41

[Quote]

Пёс Год выпуска: 2019
Жанр: Детектив
Выпущено: Украина, PRO-TV
В ролях: Николай Каптан, Игорь Забара, Владимир Дощук
В ролях: Андрей Саминин, Никита Панфилов, Михаил Жонин, Ольга Олексий, Денис Роднянский, Светлана Зельбет, Ольга Морозова, Тарас Мельничук, Автандил Бежиашвили, Илья Прокопив
О фильме: В новом сезоне напарникам Максу Максимову и Псу в очередной раз представится возможность доказать и показать на что же способны напарники. Макс и Пес будут раскрывать самые запутанные преступления.Конечно, напарникам не обойтись без поддержки с тыла. Им всячески помогают бывшая супруга Максимова Лена и его (тоже бывший) лучший друг Леонидов, который стал новым мужем. Тут вырисовывается любовный треугольник! Лена очень трепетно относится к Максу и иногда проявляет к нему определенную заботу, а это выводит Леонидова.
Качество: WEBRip
Видео: XviD, 1600 Кбит/с, 720x400, 25 кадр/с
Аудио: AC3, 2 ch, 192 Кбит/с
Продолжительность: 18 x ~ 00:50:00
Перевод: Не требуется
Субтитры: нет

Скриншоты

MediaInfo

General
Complete name : C:\00\6354\Пёс.s05.2019 WEBRip. Files-x\01. Пёс.s05.2019 WEBRip. Files-x.avi
Format : AVI
Format/Info : Audio Video Interleave
File size : 664 MiB
Duration : 51mn 31s
Overall bit rate : 1 801 Kbps
Writing application : VirtualDubMod 1.5.10.3 | www.virtualdub-fr.org || (build 2550/release)
Writing library : VirtualDubMod build 2550/release
Video
ID : 0
Format : MPEG-4 Visual
Format profile : Advanced Simple@L5
Format settings, BVOP : 1
Format settings, QPel : No
Format settings, GMC : No warppoints
Format settings, Matrix : Custom
Codec ID : XVID
Codec ID/Hint : XviD
Duration : 51mn 31s
Bit rate : 1 600 Kbps
Width : 720 pixels
Height : 400 pixels
Display aspect ratio : 16:9
Frame rate : 25.000 fps
Color space : YUV
Chroma subsampling : 4:2:0
Bit depth : 8 bits
Scan type : Progressive
Compression mode : Lossy
Bits/(Pixel*Frame) : 0.222
Stream size : 590 MiB (89%)
Writing library : XviD 73
Audio
ID : 1
Format : AC-3
Format/Info : Audio Coding 3
Mode extension : CM (complete main)
Codec ID : 2000
Duration : 51mn 31s
Bit rate mode : Constant
Bit rate : 192 Kbps
Channel(s) : 2 channels
Channel positions : Front: L R
Sampling rate : 48.0 KHz
Bit depth : 16 bits
Compression mode : Lossy
Stream size : 70.8 MiB (11%)
Alignment : Split accross interleaves
Interleave, duration : 40 ms (1.00 video frame)
Interleave, preload duration : 500 ms

Раздача ведётся путём добавления новых серий

Внимание! Раздача ведётся путём добавления новых серий; при каждом добавлении создаётся новый торрент.
Чтобы начать докачку новой серии, пользователям необходимо сделать следующее:
1. Остановить скачивание;
2. Удалить старый торрент у себя из клиента (старые серии удалять не надо);
3. Скачать новый торрент и запустить его у себя в клиенте вместо старого, при этом указать клиенту путь в старую папку куда и должно происходить скачивание новых серий. Ваш клиент при этом должен произвести хеширование (проверку) старой папки и будет докачивать только те серии, которых у вас ещё нет. Старые серии при этом не удаляются, а продолжают раздаваться! Eсли вы уже удалили старые серии, то предотвратить повторную закачку старых серий можно, отжав галочку в соответствующих местах при запуске нового торрента.
Релиз от:

Release was prepared by RG Files-x



Last edited by bond74 on 2020-09-23 13:13; edited 1 time in total
[Profile] [PM]

Starik60

Gender: Male

Longevity: 1 year 10 months

Posts: 279

Location: Москва, Россия

Post 18-Sep-2020 14:12 (after 9 months 15 days)

[Quote]

Уважаемый Бонд, Вы специально не золотите свою раздачу?
[Profile] [PM]
Display posts:    
Reply to topic

Current time is: 25-Sep 22:27

All times are UTC + 3



You cannot post new topics in this forum
You cannot reply to topics in this forum
You cannot edit your posts in this forum
You cannot delete your posts in this forum
You cannot vote in polls in this forum
You cannot attach files in this forum
You cannot download files in this forum