Лучшие враги [1-30 серии из 30] (2014) WEBRip от Files-х

Reply to topic
 
Author Message

papa1951deda ®

Gender: Male

Longevity: 1 year 2 months

Posts: 477

Location: Казахстан

Post 04-Jan-2020 12:38

[Quote]

Лучшие враги
Год выпуска: 2014
Жанр: Криминал, детектив
Выпущено: Россия, Триикс Медиа
Режиссер: Богдан Дробязко
В ролях: Алексей Нилов, Сергей Селин, Вера Сотникова, Андрей Зибров, Сергей Апрельский, Анна Табанина, Алексей Фокин, Андрей Гульнев, Вячеслав Коробицин, Константин Кайнов, Александр Есаулов, Вадим Романов, Александр Солоненко, Валентин Кузнецов (III), Андрей Благословенский, Владимир Шагин, Денис Ворошилов, Фёдор Прожога, Александр Берг, Вячеслав Гасай, Юлия Скороход, Никита Чеканов, Сергей Галич, Дмитрий Лебедев, Алексей Белозерцев, Денис Горин, Вячеслав Железняков, Евгения Игумнова, Надежда Рязанцева, Ирина Обрезкова, Алексей Козлов (V)
О фильме: Главные герои этого сериала - Глеб Данилов, подполковник, начальник оперативно-розыскной группы ГУВД, и Владимир Старыгин, тоже подполковник, начальник аналитической группы. Два начальника, два опытных работника – они друг друга недолюбливают. Данилов – простой мужик, через три слова мат, через два – рюмка. Старыгин – интеллигент, аристократ. Данилов, хоть и подполковник, ночами сидит с операми в засаде, спит в кабинете на стульях. Оперов любит по-отцовски, старается их прикрывать, если кто проколется. Подчиненные к нему, соответственно относятся, что называется, – в огонь и в воду. Старыгин сидит в уютном офисе в окружении трех сотрудников.
Качество: WEBRip
Видео: XviD, ~ 1600 Кбит/с, 720x400, 25 кадр/с
Аудио: AC3, 2 ch, 192 Кбит/с
Продолжительность: 30 x ~ 00:46:00
Перевод: Не требуется
Субтитры: нет

Скриншоты


MediaInfo

General
Complete name: H:\fiiles x\Лучшие враги..2014.WEB-DLRip.Files-x\01. Лучшие враги..2014.WEB-DLRip.Files-x.avi
Format: AVI
Format/Info: Audio Video Interleave
File size: 592 MiB
Duration: 45mn 56s
Overall bit rate: 1 802 Kbps
Writing application: VirtualDubMod 1.5.10.3 | www.virtualdub-fr.org || (build 2550/release)
Writing library: VirtualDubMod build 2550/release
Video
ID: 0
Format: MPEG-4 Visual
Format profile: Advanced Simple@L5
Format settings, BVOP: 1
Format settings, QPel: No
Format settings, GMC: No warppoints
Format settings, Matrix: Custom
Codec ID: XVID
Codec ID/Hint: XviD
Duration: 45mn 56s
Bit rate: 1 600 Kbps
Width: 720 pixels
Height: 400 pixels
Display aspect ratio: 16:9
Frame rate: 25.000 fps
Color space: YUV
Chroma subsampling: 4:2:0
Bit depth: 8 bits
Scan type: Progressive
Compression mode: Lossy
Bits/(Pixel*Frame): 0.222
Stream size: 526 MiB (89%)
Writing library: XviD 73
Audio
ID: 1
Format: AC-3
Format/Info: Audio Coding 3
Mode extension: CM (complete main)
Codec ID: 2000
Duration: 45mn 56s
Bit rate mode: Constant
Bit rate: 192 Kbps
Channel(s): 2 channels
Channel positions: Front: L R
Sampling rate: 48.0 KHz
Bit depth: 16 bits
Compression mode: Lossy
Stream size: 63.1 MiB (11%)
Alignment: Split accross interleaves
Interleave, duration: 40 ms (1.00 video frame)
Interleave, preload duration: 500 ms

Внимание! Раздача ведётся путём добавления новых серий

Раздача ведётся путём добавления новых серий, при каждом добавлении создаётся новый торрент. Чтобы начать докачку новой серии, пользователям необходимо сделать следующее:
- Остановить скачивание.
- Удалить старый торрент у себя из клиента (старые серии удалять не надо).
- Скачать новый торрент и запустить его у себя в клиенте вместо старого, при этом указать клиенту путь в старую папку куда и должно происходить скачивание новых серий.
Ваш клиент при этом должен произвести хеширование (проверку) старой папки (если не производит сам - помогите ему сделать это), и будет докачивать только те серии которых у вас ещё нет. Старые серии при этом не удаляются, а продолжают раздаваться!
Релиз от:
[Profile] [PM]
Display posts:    
Reply to topic

Current time is: 20-Feb 08:56

All times are UTC + 3



You cannot post new topics in this forum
You cannot reply to topics in this forum
You cannot edit your posts in this forum
You cannot delete your posts in this forum
You cannot vote in polls in this forum
You cannot attach files in this forum
You cannot download files in this forum