Малефисента Владычица тьмы / Maleficent Mistress of Evil (2019) BDRip-AVC [DUB iTunes] от R.G.Generalfilm

Reply to topic
 
Author Message

White Smoke ®

Gender: Male

Longevity: 1 year 3 months

Posts: 117

Post 05-Jan-2020 03:44

[Quote]

Малефисента: Владычица тьмы / Maleficent: Mistress of EvilOn October 18, go beyond the fairy tale.Год выпуска: 2019
Жанр: фэнтези, приключения, семейный
Выпущено: США, Великобритания
Режиссер: Хоаким Роннинг
В ролях: Анджелина Джоли (Maleficent), Эль Фаннинг (Aurora), Харрис Дикинсон (Prince Philip), Мишель Пфайффер (Queen Ingrith), Сэм Райли (Diaval), Чиветель Эджиофор (Conall), Эд Скрейн (Borra), Роберт Линдсей (King John), Дэвид Гяси (Percival), Дженн Мюррэй (Gerda), Джуно Темпл (Thistlewit), Лесли Мэнвилл (Flittle)
О фильме: Принцесса Аврора выросла, и теперь принц Филип делает ей предложение. Наивные молодые люди уверены, что их брак сможет объединить два королевства и помирить людей со волшебными существами, но не тут-то было. На совместном ужине с родителями Филипа, королём Джоном и королевой Ингрит, куда была приглашена и крёстная Авроры, происходит ссора, в результате чего король слегает с недомоганием явно магического свойства, а Малифисента вынуждена спасаться бегством.

Качество: BDRip-AVC
Видео: MPEG-4 AVC,1024x426 (2.40:1), 1936 kbps, 23,976 fps, 0,185 bpp
Аудио: русский, AC3, 5.1, 48 kHz, 384 kbps CBR
Продолжительность: 01:58:50
Перевод : Дублированный [iTunes]
Субтитры : русские (Full)
Навигация по главам: есть

Скриншоты

MediaInfo

Unique ID : 176430208817569811654125549842527920685 (0x84BB38E3C74FFB378A8E9E63CCD3A22D)
Complete name : E:\Запись с тв\Maleficent.Mistress.of.Evil.2019.BDRip-AVC.Rip.by.White Smoke.R.G.Generalfilm.mkv
Format : Matroska
Format version : Version 4 / Version 2
File size : 1.93 GiB
Duration : 1 h 58 min
Overall bit rate : 2 322 kb/s
Movie name : Maleficent.Mistress.of.Evil.2019.BDRip-AVC.Rip.by.White Smoke.R.G.Generalfilm.mkv
Encoded date : UTC 2020-01-04 14:28:56
Writing application : mkvmerge v6.8.0 ('Theme for Great Cities') 64bit built on Mar 2 2014 21:34:26
Writing library : libebml v1.3.0 + libmatroska v1.4.1
Cover : Yes
Attachments : cover.png
Video
ID : 1
Format : AVC
Format/Info : Advanced Video Codec
Format profile : High@L4.1
Format settings, CABAC : Yes
Format settings, ReFrames : 10 frames
Codec ID : V_MPEG4/ISO/AVC
Duration : 1 h 58 min
Bit rate : 1 936 kb/s
Width : 1 024 pixels
Height : 426 pixels
Display aspect ratio : 2.40:1
Frame rate mode : Constant
Frame rate : 23.976 (24000/1001) FPS
Color space : YUV
Chroma subsampling : 4:2:0
Bit depth : 8 bits
Scan type : Progressive
Bits/(Pixel*Frame) : 0.185
Stream size : 1.57 GiB (81%)
Writing library : x264 core 148 r2638 7599210
Encoding settings : cabac=1 / ref=10 / deblock=1:-2:-1 / analyse=0x3:0x113 / me=umh / subme=11 / psy=1 / psy_rd=0.00:0.15 / mixed_ref=1 / me_range=32 / chroma_me=1 / trellis=2 / 8x8dct=1 / cqm=0 / deadzone=21,11 / fast_pskip=0 / chroma_qp_offset=-3 / threads=6 / lookahead_threads=1 / sliced_threads=0 / nr=0 / decimate=0 / interlaced=0 / bluray_compat=0 / constrained_intra=0 / bframes=10 / b_pyramid=2 / b_adapt=2 / b_bias=0 / direct=1 / weightb=1 / open_gop=0 / weightp=2 / keyint=240 / keyint_min=23 / scenecut=40 / intra_refresh=0 / rc_lookahead=40 / rc=2pass / mbtree=1 / bitrate=1936 / ratetol=1.0 / qcomp=0.65 / qpmin=0 / qpmax=69 / qpstep=4 / cplxblur=20.0 / qblur=0.5 / vbv_maxrate=50000 / vbv_bufsize=65500 / nal_hrd=none / filler=0 / ip_ratio=1.40 / aq=1:1.00
Language : English
Default : Yes
Forced : No
Audio
ID : 2
Format : AC-3
Format/Info : Audio Coding 3
Mode extension : CM (complete main)
Format settings, Endianness : Big
Codec ID : A_AC3
Duration : 1 h 58 min
Bit rate mode : Constant
Bit rate : 384 kb/s
Channel(s) : 6 channels
Channel positions : Front: L C R, Side: L R, LFE
Sampling rate : 48.0 kHz
Frame rate : 31.250 FPS (1536 spf)
Compression mode : Lossy
Stream size : 326 MiB (17%)
Title : iTunes
Language : Russian
Default : Yes
Forced : Yes
Text #1
ID : 3
Format : UTF-8
Codec ID : S_TEXT/UTF8
Codec ID/Info : UTF-8 Plain Text
Title : Full
Language : Russian
Default : No
Forced : No
Text #2
ID : 4
Format : UTF-8
Codec ID : S_TEXT/UTF8
Codec ID/Info : UTF-8 Plain Text
Title : SDH
Language : Russian
Default : No
Forced : No
Menu
00:00:00.000 : en:Chapter 01
00:06:47.907 : en:Chapter 02
00:09:11.676 : en:Chapter 03
00:14:45.551 : en:Chapter 04
00:19:27.833 : en:Chapter 05
00:23:10.556 : en:Chapter 06
00:33:51.905 : en:Chapter 07
00:39:10.265 : en:Chapter 08
00:42:19.579 : en:Chapter 09
00:48:31.992 : en:Chapter 10
00:52:44.745 : en:Chapter 11
00:57:15.140 : en:Chapter 12
00:59:26.146 : en:Chapter 13
01:05:47.569 : en:Chapter 14
01:09:31.751 : en:Chapter 15
01:19:07.242 : en:Chapter 16
01:22:48.547 : en:Chapter 17
01:29:09.219 : en:Chapter 18
01:35:00.653 : en:Chapter 19
01:44:26.510 : en:Chapter 20
01:51:06.994 : en:Chapter 21

Доп. информация

Мировая премьера: 16 октября 2019 (Франция)
Премьера (РФ): 17 октября 2019
Бюджет фильма: $185 000 000
MPAA: PG - Рекомендуется присутствие родителей
Релиз от: за Постер спасибо irinadyach
[Profile] [PM]
Display posts:    
Reply to topic

Current time is: 20-Feb 07:15

All times are UTC + 3



You cannot post new topics in this forum
You cannot reply to topics in this forum
You cannot edit your posts in this forum
You cannot delete your posts in this forum
You cannot vote in polls in this forum
You cannot attach files in this forum
You cannot download files in this forum