Discovery. Миллиардер под прикрытием / Undercover Billionaire [1-8 серии из 8] (2019) HDTVRip 720р от GenerallFilm

Reply to topic
 
Author Message

Starik60 ®

Gender: Male

Longevity: 1 year 9 months

Posts: 251

Location: Москва, Россия

Post 09-Jan-2020 21:47

[Quote]

Миллиардер под прикрытием / Undercover Billionaire
Год выпуска: 2019
Жанр: Документальный, история, работа
Выпущено: США: Discovery Channel
В ролях: Гленн Стернс
О фильме: Гленн Стернс родился и рос в бедной семье на окраине Мэриленда, но он сумел искусно распорядиться своими талантами и стать миллиардером. Считая, что разбогатеть под силу каждому, Гленн собирается проверить, помогут ли его знания и опыт всего за 90 дней создать компанию, которая будет стоить миллион. Но есть нюанс: личность Гленна будет оставаться засекреченной для окружающих. В его распоряжении не будет ни ресурсов, ни полезных контактов. Дорога к успеху редко бывает легкой — Гленну придётся наладить связи, устроиться на работу и создать компанию с нуля. Если он добьется успеха, то по истечении 90 дней передаст построенный им бизнес достойному кандидату, который больше всех поможет ему на пути, и только тогда откроет, кто он на самом деле.

Качество: HDTVRip 720p
Видео: MPEG-4 AVC, ~ 4000 Кбит/с, 1280x720
Аудио: MP2, 2 ch, 384 Кбит/с
Продолжительность: 8 x ~ 00:44:00
Перевод: Профессиональный (двухголосый, закадровый)
Официальный сайт

Скриншоты



MediaInfo


General
Unique ID : 243098784318691650053187127752028970520 (0xB6E31F70E46FB7B3B949BFC5A041DE18)
Complete name : G:\Раздачи 2\Миллиардер под прикрытием 720p GeneralFilm\01 Миллиардер под прикрытием by Starik60.GeneralFilm.mkv
Format : Matroska
Format version : Version 4 / Version 2
File size : 1.34 GiB
Duration : 43 min 47 s
Overall bit rate mode : Constant
Overall bit rate : 4 384 kb/s
Encoded date : UTC 2020-01-09 18:15:22
Writing application : mkvmerge v7.8.0 ('River Man') 64bit built on Mar 27 2015 16:31:37
Writing library : libebml v1.3.1 + libmatroska v1.4.2 / Lavf54.63.104
Cover : Yes
Attachments : cover4.jpg
Video
ID : 1
Format : AVC
Format/Info : Advanced Video Codec
Format profile : High@L4.1
Format settings : CABAC / 3 Ref Frames
Format settings, CABAC : Yes
Format settings, ReFrames : 3 frames
Codec ID : V_MPEG4/ISO/AVC
Duration : 43 min 47 s
Bit rate mode : Constant
Bit rate : 4 000 kb/s
Width : 1 280 pixels
Height : 720 pixels
Display aspect ratio : 16:9
Frame rate mode : Constant
Frame rate : 50.000 FPS
Standard : PAL
Color space : YUV
Chroma subsampling : 4:2:0
Bit depth : 8 bits
Scan type : Progressive
Bits/(Pixel*Frame) : 0.087
Stream size : 1.22 GiB (91%)
Default : No
Forced : No
Color range : Limited
Color primaries : BT.709
Transfer characteristics : BT.709
Matrix coefficients : BT.709
Audio
ID : 2
Format : MPEG Audio
Format version : Version 1
Format profile : Layer 2
Codec ID : A_MPEG/L2
Codec ID/Hint : MP2
Duration : 43 min 47 s
Bit rate mode : Constant
Bit rate : 384 kb/s
Channel(s) : 2 channels
Sampling rate : 48.0 kHz
Frame rate : 41.667 FPS (1152 SPF)
Compression mode : Lossy
Delay relative to video : 8 ms
Stream size : 120 MiB (9%)
Language : English
Default : Yes
Forced : No

Название серий


01. Пари на миллион долларов.
02. Сделай дело или умри.
03. Хватай быка за рога.
04. Карточный домик.
05. Нет боли, нет доли.
06. Разоблачённый.
07. Испытание боем.
08. Судный день.

Внимание! Раздача ведётся путём добавления новых серий!

Внимание! Раздача ведётся путём добавления новых серий; при каждом добавлении создfётся новый торрент. Чтобы начать докачку новой серии, пользователям необходимо сделать следующее: (1) остановить скачивание, (2) удалить старый торрент у себя из клиента (старые серии удалять не надо), (3) скачать новый торрент и запустить его у себя в клиенте вместо старого, при этом указать клиенту путь в старую папку куда и должно происходить скачивание новых серий.
Ваш клиент при этом должен произвести хеширование (проверку) старой папки (если не производит сам - помогите ему сделать это), и будет докачивать только те серии которых у вас ещё нет. Старые серии при этом не удаляются, а продолжают раздаваться!
Eсли вы уже удалили старые серии, то предотвратить повторную закачку старых серий можно, отжав галочку в соответсвующих местах при запуске нового торрента.
Благодарю за постер ValkiriaGF
Релиз от:
[Profile] [PM]
Display posts:    
Reply to topic

Current time is: 13-Aug 11:59

All times are UTC + 3



You cannot post new topics in this forum
You cannot reply to topics in this forum
You cannot edit your posts in this forum
You cannot delete your posts in this forum
You cannot vote in polls in this forum
You cannot attach files in this forum
You cannot download files in this forum