Сильная ты [1-2 серии из 2] (2019) WEBRip от Files-x

Reply to topic
 
Author Message

papa1951deda ®

Gender: Male

Longevity: 1 year 3 months

Posts: 482

Location: Казахстан

Post 19-Jan-2020 17:16

[Quote]

Сильная ты Год выпуска: 2019
Жанр: Мелодрама
Выпущено: Россия, Атлантик Продакшн, Дерево
Режиссер: Иван Криворучко
В ролях: Наталья Высочанская, Олег Андреев, Анна Миклош, Прохор Дубравин, Андрей Горбачёв, Елена Вожакина, Анастасия Тюнина, Мария Полиенко, Софья Присс, Никита Плащевский, Юрий Жаравин, Глеб Степан Каллистов, Валерия Орлова
О фильме: Нина Вавилова – талантливый гид. Она проводит городские экскурсии, сражается за исторические памятники и большую часть жизнь отдает любимому делу.Она давно и счастливо замужем. Ее муж Артем для Нины точка опоры и единственный человек, которому она абсолютно доверяет. Ей кажется, что без него она не смогла бы прожить и дня.
Качество: WEBRip
Видео: XviD, ~ 1600 Кбит/с, 720x400, 25 кадр/с
Аудио: AC3, 2 ch, 192 Кбит/с
Продолжительность: 2 x ~ 01:31:00
Перевод: Не требуется
Cубтитры: нет

Скриншоты


MediaInfo

General
Complete name : H:\fiiles x\Сильная Ты..2019.WEB-DLRip.Files-x\01. Сильная Ты..2019.WEB-DLRip.Files-x.avi
Format : AVI
Format/Info : Audio Video Interleave
File size : 1.15 GiB
Duration : 1h 31mn
Overall bit rate : 1 802 Kbps
Writing application : VirtualDubMod 1.5.10.3 | www.virtualdub-fr.org || (build 2550/release)
Writing library : VirtualDubMod build 2550/release
Video
ID : 0
Format : MPEG-4 Visual
Format profile : Advanced Simple@L5
Format settings, BVOP : 1
Format settings, QPel : No
Format settings, GMC : No warppoints
Format settings, Matrix : Custom
Codec ID : XVID
Codec ID/Hint : XviD
Duration : 1h 31mn
Bit rate : 1 600 Kbps
Width : 720 pixels
Height : 400 pixels
Display aspect ratio : 16:9
Frame rate : 25.000 fps
Color space : YUV
Chroma subsampling : 4:2:0
Bit depth : 8 bits
Scan type : Progressive
Compression mode : Lossy
Bits/(Pixel*Frame) : 0.222
Stream size : 1.02 GiB (89%)
Writing library : XviD 73
Audio
ID : 1
Format : AC-3
Format/Info : Audio Coding 3
Mode extension : CM (complete main)
Codec ID : 2000
Duration : 1h 31mn
Bit rate mode : Constant
Bit rate : 192 Kbps
Channel(s) : 2 channels
Channel positions : Front: L R
Sampling rate : 48.0 KHz
Bit depth : 16 bits
Compression mode : Lossy
Stream size : 126 MiB (11%)
Alignment : Split accross interleaves
Interleave, duration : 40 ms (1.00 video frame)
Interleave, preload duration : 500 ms
Релиз от:
[Profile] [PM]
Display posts:    
Reply to topic

Current time is: 24-Feb 05:53

All times are UTC + 3



You cannot post new topics in this forum
You cannot reply to topics in this forum
You cannot edit your posts in this forum
You cannot delete your posts in this forum
You cannot vote in polls in this forum
You cannot attach files in this forum
You cannot download files in this forum