Следуя за сердцем [1-4 серии из 4] (2020) WEBRip 1080p от Files-x

Reply to topic
 
Author Message

Nicodem ®

Gender: Male

Longevity: 1 year 6 months

Posts: 513

Post 02-Apr-2020 14:44

[Quote]

Следуя за сердцем
Год выпуска: 2020
Жанр: Мелодрама
Выпущено: Украина, "Арт-Территория"
Режиссер: Саша Кириенко
В ролях: Дана Абызова, Кирилл Жандаров, Мира Фаренюк, Евфросиния Мельник, Олеся Гаевая, Алексей Нагрудный, Ирина Новак, Евгений Шекера, Евгений Григорьев (IV), Роман Ясиновский, Сергей Калантай, Михаил Кукуюк, Игорь Верста, Алексей Агеев (II)
О фильме: Света – открытая, привлекательная, но одинокая девушка, которая сама воспитывает дочь Дашу. Однажды утром Света спешит на собеседование, но едва не попадает под колеса грузовика. Ее чудом спасает вдовец Олег, воспитывающий семилетнюю дочь Леру. Мужчина оказывается владельцем той самой крупной строительной компании, куда Света спешит на собеседование. Между молодыми людьми появляется симпатия, однако Олег собирается жениться на другой. Впрочем, мужчина даже не подозревает, какой путь предательств его ожидает.
Качество: WEBRip 1080p
Видео: MPEG-4 AVC, ~ 5000 Кбит/с, 1920x1080, 25 кадр/с
Аудио: AC3, 2 ch, 192 Кбит/с
Продолжительность: 4 x ~ 00:43:46
Перевод: Не требуется
Cубтитры: нет

Скриншоты


MediaInfo

General
Unique ID : 3592158785237634323859309905379740394 (0x2B3D31A18A89B2C65E8F028DE8E4AEA)
Complete name : C:01.Следуя за сердцем.(2020).WEBRip (1080p).by.Nicodem.Files-x.mkv
Format : Matroska
File size : 1.56 GiB
Duration : 43mn 16s
Overall bit rate : 5 157 Kbps
Writing application : Lavf56.36.100
Writing library : Lavf56.36.100
Video
ID : 1
Format : AVC
Format/Info : Advanced Video Codec
Format profile : High@L4.1
Format settings, CABAC : No
Format settings, ReFrames : 2 frames
Codec ID : V_MPEG4/ISO/AVC
Duration : 43mn 16s
Bit rate mode : Constant
Bit rate : 5 000 Kbps
Width : 1 920 pixels
Height : 1 080 pixels
Display aspect ratio : 16:9
Frame rate : 25.000 fps
Standard : PAL
Color space : YUV
Chroma subsampling : 4:2:0
Bit depth : 8 bits
Scan type : Progressive
Bits/(Pixel*Frame) : 0.096
Stream size : 1.47 GiB (94%)
Language : English
Color primaries : BT.709-5, BT.1361, IEC 61966-2-4, SMPTE RP177
Transfer characteristics : BT.709-5, BT.1361
Matrix coefficients : BT.709-5, BT.1361, IEC 61966-2-4 709, SMPTE RP177
Audio
ID : 2
Format : AC-3
Format/Info : Audio Coding 3
Mode extension : CM (complete main)
Codec ID : A_AC3
Duration : 43mn 16s
Bit rate mode : Constant
Bit rate : 192 Kbps
Channel(s) : 2 channels
Channel positions : Front: L R
Sampling rate : 48.0 KHz
Bit depth : 16 bits
Compression mode : Lossy
Delay relative to video : 1mn 5s
Stream size : 59.4 MiB (4%)
Language : English / un

Раздача ведётся путём добавления новых серий

Внимание! Раздача ведётся путём добавления новых серий; при каждом добавлении создаётся новый торрент.
Чтобы начать докачку новой серии, пользователям необходимо сделать следующее:
1. Остановить скачивание;
2. Удалить старый торрент у себя из клиента (старые серии удалять не надо);
3. Скачать новый торрент и запустить его у себя в клиенте вместо старого, при этом указать клиенту путь в старую папку куда и должно происходить скачивание новых серий. Ваш клиент при этом должен произвести хеширование (проверку) старой папки и будет докачивать только те серии, которых у вас ещё нет. Старые серии при этом не удаляются, а продолжают раздаваться! Eсли вы уже удалили старые серии, то предотвратить повторную закачку старых серий можно, отжав галочку в соответствующих местах при запуске нового торрента.
Релиз от:

Release was prepared by RG Files-x

[Profile] [PM]
Display posts:    
Reply to topic

Current time is: 31-May 03:46

All times are UTC + 3



You cannot post new topics in this forum
You cannot reply to topics in this forum
You cannot edit your posts in this forum
You cannot delete your posts in this forum
You cannot vote in polls in this forum
You cannot attach files in this forum
You cannot download files in this forum