Ню (2018) WEB-DLRip-AVC от Files-x | iTunes

Reply to topic
 
Author Message

papa1951deda ®

Gender: Male

Longevity: 1 year 6 months

Posts: 623

Location: Казахстан

Post 02-Apr-2020 14:58

[Quote]

Ню Год выпуска: 2018
Жанр: Мелодрама
Выпущено: Россия, Planeta Inform
Режиссер: Гэ Ян
В ролях: Гэ Ян, Евгений Романцов, Демид Усачёв, Фабио Брессан, Дарья Ястребова, Георгий Кудренко, Александр Кривошапкин, Никита Еленев
О фильме: Молодая иностранка ищет в Москве свою любовь, идеал, мечту. Но что делать, если не можешь найти даже партнера на одну ночь? Её неправильно понимают или причина в ней самой? Она изо дня в день ведет свой видеоблог и пытается понять причину своего одиночества в большом городе.
Качество: WEB-DLRip-AVC
Видео: MPEG-4 AVC, ~ 2 128 Кбит/с, 720x400, 25 кадр/с
Аудио: AC3, 6 ch, 384 Кбит/с| русский
Продолжительность: 01:04:00
Перевод: Не требуется [iTunes]
Субтитры: Отсутствуют

Скриншоты



MediaInfo

General
Unique ID : 213758245262103046344523778521627498946 (0xA0D0572DB1D6B940BF65DBCDB8B619C2)
Complete name : H:\fiiles x\Ню.2018,WEB-DLRip.Files-x.mkv
Format : Matroska
File size : 1.05 GiB
Duration : 1h 4mn
Overall bit rate : 2 321 Kbps
Encoded date : UTC 2020-04-02 07:16:41
Writing application : mkvmerge v7.8.0 ('River Man') 32bit built on Apr 3 2015 12:11:22
Writing library : libebml v1.3.1 + libmatroska v1.4.2
Video
ID : 1
Format : AVC
Format/Info : Advanced Video Codec
Format profile : High@L4.1
Format settings, CABAC : Yes
Format settings, ReFrames : 9 frames
Codec ID : V_MPEG4/ISO/AVC
Duration : 1h 4mn
Bit rate : 2 128 Kbps
Width : 720 pixels
Height : 400 pixels
Display aspect ratio : 16:9
Frame rate : 25.000 fps
Color space : YUV
Chroma subsampling : 4:2:0
Bit depth : 8 bits
Scan type : Progressive
Bits/(Pixel*Frame) : 0.296
Stream size : 962 MiB (90%)
Writing library : x264 core 146 r2538 121396c
Encoding settings : cabac=1 / ref=9 / deblock=1:-2:-1 / analyse=0x3:0x133 / me=umh / subme=9 / psy=1 / psy_rd=1.00:0.15 / mixed_ref=1 / me_range=32 / chroma_me=1 / trellis=2 / 8x8dct=1 / cqm=0 / deadzone=21,11 / fast_pskip=0 / chroma_qp_offset=-3 / threads=18 / lookahead_threads=3 / sliced_threads=0 / nr=0 / decimate=1 / interlaced=0 / bluray_compat=0 / constrained_intra=0 / bframes=9 / b_pyramid=2 / b_adapt=2 / b_bias=0 / direct=3 / weightb=1 / open_gop=0 / weightp=2 / keyint=250 / keyint_min=25 / scenecut=40 / intra_refresh=0 / rc=2pass / mbtree=0 / bitrate=2128 / ratetol=1.0 / qcomp=0.60 / qpmin=0 / qpmax=69 / qpstep=4 / cplxblur=20.0 / qblur=0.5 / ip_ratio=1.40 / pb_ratio=1.30 / aq=2:1.00
Color primaries : BT.709-5, BT.1361, IEC 61966-2-4, SMPTE RP177
Transfer characteristics : BT.709-5, BT.1361
Matrix coefficients : BT.709-5, BT.1361, IEC 61966-2-4 709, SMPTE RP177
Audio
ID : 2
Format : AC-3
Format/Info : Audio Coding 3
Mode extension : CM (complete main)
Codec ID : A_AC3
Duration : 1h 4mn
Bit rate mode : Constant
Bit rate : 192 Kbps
Channel(s) : 6 channels
Channel positions : Front: L C R, Side: L R, LFE
Sampling rate : 48.0 KHz
Bit depth : 16 bits
Compression mode : Lossy
Stream size : 88.7 MiB (8%)
Релиз от:

Release was prepared by RG Files-x

[Profile] [PM]
Display posts:    
Reply to topic

Current time is: 31-May 02:36

All times are UTC + 3



You cannot post new topics in this forum
You cannot reply to topics in this forum
You cannot edit your posts in this forum
You cannot delete your posts in this forum
You cannot vote in polls in this forum
You cannot attach files in this forum
You cannot download files in this forum