Ким Джи-ён, 1982 года рождения / 82nyeonsaeng Kim Ji-yeong (2019) WEB-DLRip | Asian Mirаcle Group

Reply to topic
 
Author Message

Monk ®

Gender: Male

Longevity: 1 year 6 months

Posts: 12010

Location: Казань

Post 23-May-2020 03:59

[Quote]

Ким Джи-ён, 1982 года рождения / 82nyeonsaeng Kim Ji-yeong Год выпуска: 2019
Жанр: Драма
Выпущено: Южная Корея, Lotte Entertainment
Режиссер: До Ён Ким (II)
В ролях: Ю Ми Чон (II), Ю Гон, Ми Гён Ким (I), Мин Чон Гон, Сон Чхоль Ким, Оль Ли, Бон Рён Ли, Сон Ён Пак, Гым Сун Ким, Гук Хян Чон, Хе Ран Ём, Су Чон Е, Чон Ён Ким, Ми Гён Ким (II)
О фильме: Ким Джи Ён, обычная 36-летняя кореянка, имеет одно из самых распространенных женских имен для людей ее возраста. Она замужем и воспитывает маленькую дочь, уволившись с работы после ее рождения. Женщина ведёт обычную жизнь домохозяйки, заботясь о своём муже и дочери, выполняя из последних сил, целый день домашние дела. У Джи Ён есть много того, что она хочет сказать — что измотана, что заслуживает того, чтобы отдохнуть с чашкой горячего кофе или уже выйти на работу. Но никто не слушает ее и даже не позволяет ей сказать это. Вскоре муж стал замечать странности у жены: забывчивость, усталость, злость, поведение несвойственное Джи Ён. Поэтому он обращается к психиатру, чтобы разобраться в чем деле, но тот настаивает на личном визите жены.
Качество: WEB-DLRip
Видео: XviD, 1558 Кбит/с, 720x384
Аудио: Русский (АС3, 2 ch, 192 Кбит/с), корейский (АС3, 2 ch, 224 Кбит/с)
Продолжительность: 01:58:52
Перевод: Любительский двухголосый [Asian Mirаcle Group]
Субтитры: Русские, английские

Скриншоты



MediaInfo

Общее
Полное имя : C:\Kim.Ji.young.1982.goda.rogdeniya.2019.WEB-DLRip\Kim.Ji.young.1982.goda.rogdeniya.2019.WEB-DLRip.avi
Формат : AVI
Формат/Информация : Audio Video Interleave
Размер файла : 1,46 Гбайт
Продолжительность : 1 ч. 58 м.
Общий поток : 1759 Кбит/сек
Название фильма : Ким Джи-ён, 1982 года рождения / Kim Ji-young: Born 1982 / 82nyeonsaeng Kim Ji-yeong (2019) WEB-DLRip
Режиссёр : Ким До-ён / Kim Do-yeong
Жанр : Драма
Программа кодирования : VirtualDubMod 1.5.10.2 (build 2542/release)
Формат оригинала/Имя : Художественный фильм
Авторское право : Южная Корея, Lotte Entertainment
Примечание : Rip by vitolinform
Видео
Идентификатор : 0
Формат : MPEG-4 Visual
Профиль формата : Advanced Simple@L5
Настройки формата : BVOP1 / Custom Matrix
Параметр BVOP формата : 1
Параметр QPel формата : Нет
Параметр GMC формата : Без точки перехода
Параметр матрицы формата : Выборочная
Идентификатор кодека : XVID
Идентификатор кодека/Подсказка : XviD
Продолжительность : 1 ч. 58 м.
Битрейт : 1558 Кбит/сек
Ширина : 720 пикселей
Высота : 384 пикселя
Соотношение сторон : 1,85:1
Частота кадров : 23,976 (24000/1001) кадра/сек
Цветовое пространство : YUV
Субдискретизация насыщенности : 4:2:0
Битовая глубина : 8 бит
Тип развёртки : Прогрессивная
Метод сжатия : С потерями
Бит/(Пиксели*Кадры) : 0.235
Размер потока : 1,29 Гбайт (89%)
Библиотека кодирования : XviD 64
Аудио
Идентификатор : 1
Формат : AC-3
Формат/Информация : Audio Coding 3
Коммерческое название : Dolby Digital
Идентификатор кодека : 2000
Продолжительность : 1 ч. 58 м.
Вид битрейта : Постоянный
Битрейт : 192 Кбит/сек
Каналы : 2 канала
ChannelLayout : L R
Частота : 48,0 КГц
Частота кадров : 31,250 кадров/сек (1536 SPF)
Битовая глубина : 16 бит
Метод сжатия : С потерями
Размер потока : 163 Мбайт (11%)
Выравнивание : Разделение по промежуткам
Продолжительность промежутка : 42 мс. (1,00 видеокадр)
Время предзагрузки промежутка : 500 мс.
Заголовок : Russian (DVO Asian Miracle Group)
ServiceKind/String : Complete Main
===================================================================
Общее
Полное имя : C:\Kim.Ji.young.1982.goda.rogdeniya.2019.WEB-DLRip\Kim.Ji.young.1982.goda.rogdeniya.2019.WEB-DLRip_kor.ac3
Формат : AC-3
Формат/Информация : Audio Coding 3
Коммерческое название : Dolby Digital
Размер файла : 190 Мбайт
Продолжительность : 1 ч. 58 м.
Режим общего битрейта : Постоянный
Общий поток : 224 Кбит/сек
Аудио
Формат : AC-3
Формат/Информация : Audio Coding 3
Коммерческое название : Dolby Digital
Продолжительность : 1 ч. 58 м.
Вид битрейта : Постоянный
Битрейт : 224 Кбит/сек
Каналы : 2 канала
ChannelLayout : L R
Частота : 48,0 КГц
Частота кадров : 31,250 кадров/сек (1536 SPF)
Битовая глубина : 16 бит
Метод сжатия : С потерями
Размер потока : 190 Мбайт (100%)
ServiceKind/String : Complete Main
[Profile] [PM]
Display posts:    
Reply to topic

Current time is: 27-May 13:17

All times are UTC + 3



You cannot post new topics in this forum
You cannot reply to topics in this forum
You cannot edit your posts in this forum
You cannot delete your posts in this forum
You cannot vote in polls in this forum
You cannot attach files in this forum
You cannot download files in this forum