Ким Джи-ён, 1982 года рождения / 82nyeonsaeng Kim Ji-yeong (2019) WEB-DL 1080p | Asian Mirаcle Group

Reply to topic
 
Author Message

Monk ®

Gender: Male

Longevity: 1 year 6 months

Posts: 12010

Location: Казань

Post 23-May-2020 04:01

[Quote]

Ким Джи-ён, 1982 года рождения / 82nyeonsaeng Kim Ji-yeong Год выпуска: 2019
Жанр: Драма
Выпущено: Южная Корея, Lotte Entertainment
Режиссер: До Ён Ким (II)
В ролях: Ю Ми Чон (II), Ю Гон, Ми Гён Ким (I), Мин Чон Гон, Сон Чхоль Ким, Оль Ли, Бон Рён Ли, Сон Ён Пак, Гым Сун Ким, Гук Хян Чон, Хе Ран Ём, Су Чон Е, Чон Ён Ким, Ми Гён Ким (II)
О фильме: Ким Джи Ён, обычная 36-летняя кореянка, имеет одно из самых распространенных женских имен для людей ее возраста. Она замужем и воспитывает маленькую дочь, уволившись с работы после ее рождения. Женщина ведёт обычную жизнь домохозяйки, заботясь о своём муже и дочери, выполняя из последних сил, целый день домашние дела. У Джи Ён есть много того, что она хочет сказать — что измотана, что заслуживает того, чтобы отдохнуть с чашкой горячего кофе или уже выйти на работу. Но никто не слушает ее и даже не позволяет ей сказать это. Вскоре муж стал замечать странности у жены: забывчивость, усталость, злость, поведение несвойственное Джи Ён. Поэтому он обращается к психиатру, чтобы разобраться в чем деле, но тот настаивает на личном визите жены.
Качество: WEB-DL 1080p
Видео: MPEG-4 AVC, 5120 Кбит/с, 1920x1080
Аудио: Русский (АС3, 2 ch, 192 Кбит/с), корейский (ААС, 2 ch, 320 Кбит/с)
Продолжительность: 01:58:52
Перевод: Любительский двухголосый [Asian Mirаcle Group]
Субтитры: Русские, английские

Скриншоты



MediaInfo

Общее
Уникальный идентификатор : 246808533733317897669925110296167770537 (0xB9AD983564E87E30EE3677031916E9A9)
Полное имя : C:\Kim.Jiyoung.Born.1982.1982.2019.1080p.WEB-DL.mkv
Формат : Matroska
Версия формата : Version 4
Размер файла : 4,67 Гбайт
Продолжительность : 1 ч. 58 м.
Общий поток : 5620 Кбит/сек
Название фильма : Ким Джи-ён, 1982 года рождения / 82nyeonsaeng Kim Ji-yeong / Kim Ji-young: Born 1982 (2019) WEB-DL 1080p
Дата кодирования : UTC 2020-05-22 07:35:47
Программа кодирования : mkvmerge v42.0.0 ('Overtime') 32-bit
Библиотека кодирования : libebml v1.3.10 + libmatroska v1.5.2
Видео
Идентификатор : 1
Формат : AVC
Формат/Информация : Advanced Video Codec
Профиль формата : High@L4
Настройки формата : CABAC / 4 Ref Frames
Параметр CABAC формата : Да
Параметр RefFrames формата : 4 кадра
Параметр GOP формата : M=4, N=23
Идентификатор кодека : V_MPEG4/ISO/AVC
Продолжительность : 1 ч. 58 м.
Битрейт : 5120 Кбит/сек
Ширина : 1920 пикселей
Высота : 1080 пикселей
Соотношение сторон : 16:9
Режим частоты кадров : Постоянный
Частота кадров : 23,976 (24000/1001) кадра/сек
Цветовое пространство : YUV
Субдискретизация насыщенности : 4:2:0
Битовая глубина : 8 бит
Тип развёртки : Прогрессивная
Бит/(Пиксели*Кадры) : 0.103
Размер потока : 4,24 Гбайт (91%)
Заголовок : Ким Джи-ён, 1982 года рождения / 82nyeonsaeng Kim Ji-yeong / Kim Ji-young: Born 1982 (2019) WEB-DL 1080p
Библиотека кодирования : x264 core 148 r2768 d32d7bf
Настройки программы : cabac=1 / ref=3 / deblock=1:0:0 / analyse=0x3:0x113 / me=hex / subme=8 / psy=1 / psy_rd=1.00:0.00 / mixed_ref=1 / me_range=16 / chroma_me=1 / trellis=2 / 8x8dct=1 / cqm=0 / deadzone=21,11 / fast_pskip=1 / chroma_qp_offset=-2 / threads=24 / lookahead_threads=4 / sliced_threads=0 / nr=0 / decimate=1 / interlaced=0 / bluray_compat=0 / stitchable=1 / constrained_intra=0 / bframes=3 / b_pyramid=2 / b_adapt=1 / b_bias=0 / direct=3 / weightb=1 / open_gop=0 / weightp=2 / keyint=23 / keyint_min=12 / scenecut=40 / intra_refresh=0 / rc_lookahead=23 / rc=2pass / mbtree=1 / bitrate=5120 / ratetol=1.0 / qcomp=0.60 / qpmin=0 / qpmax=69 / qpstep=4 / cplxblur=20.0 / qblur=0.5 / vbv_maxrate=35840 / vbv_bufsize=35840 / nal_hrd=none / filler=0 / ip_ratio=1.40 / aq=1:1.00
Язык : Korean
Default : Да
Forced : Да
Аудио #1
Идентификатор : 2
Формат : AC-3
Формат/Информация : Audio Coding 3
Коммерческое название : Dolby Digital
Идентификатор кодека : A_AC3
Продолжительность : 1 ч. 58 м.
Вид битрейта : Постоянный
Битрейт : 192 Кбит/сек
Каналы : 2 канала
ChannelLayout : L R
Частота : 48,0 КГц
Частота кадров : 31,250 кадров/сек (1536 SPF)
Битовая глубина : 16 бит
Метод сжатия : С потерями
Размер потока : 163 Мбайт (3%)
Заголовок : DVO Asian Mirаcle Group
Язык : Russian
ServiceKind/String : Complete Main
Default : Да
Forced : Да
Аудио #2
Идентификатор : 3
Формат : AAC LC
Формат/Информация : Advanced Audio Codec Low Complexity
Идентификатор кодека : A_AAC-2
Продолжительность : 1 ч. 58 м.
Битрейт : 320 Кбит/сек
Каналы : 2 канала
ChannelLayout : L R
Частота : 48,0 КГц
Частота кадров : 46,875 кадров/сек (1024 SPF)
Метод сжатия : С потерями
Размер потока : 272 Мбайт (6%)
Заголовок : Korean
Язык : Korean
Default : Нет
Forced : Нет
Текст #1
Идентификатор : 4
Формат : UTF-8
Идентификатор кодека : S_TEXT/UTF8
Идентификатор кодека/Информация : UTF-8 Plain Text
Продолжительность : 1 ч. 52 м.
Битрейт : 84 бит/сек
ElementCount : 1316
Размер потока : 69,6 Кбайт (0%)
Заголовок : ФСГ "Альянс"
Язык : Russian
Default : Нет
Forced : Нет
Текст #2
Идентификатор : 5
Формат : UTF-8
Идентификатор кодека : S_TEXT/UTF8
Идентификатор кодека/Информация : UTF-8 Plain Text
Продолжительность : 1 ч. 51 м.
Битрейт : 49 бит/сек
ElementCount : 1646
Размер потока : 39,9 Кбайт (0%)
Заголовок : English
Язык : English
Default : Нет
Forced : Нет
[Profile] [PM]
Display posts:    
Reply to topic

Current time is: 27-May 11:20

All times are UTC + 3



You cannot post new topics in this forum
You cannot reply to topics in this forum
You cannot edit your posts in this forum
You cannot delete your posts in this forum
You cannot vote in polls in this forum
You cannot attach files in this forum
You cannot download files in this forum