Надо мною солнце не садится (2019) WEBRip 720p

Reply to topic
 
Author Message

Monk ®

Gender: Male

Longevity: 1 year 7 months

Posts: 12375

Location: Казань

Post 30-Jun-2020 00:20

[Quote]

Надо мною солнце не садится Год выпуска: 2019
Жанр: Драма, комедия
Выпущено: Россия, Сахафильм
Режиссер: Любовь Борисова
В ролях: Иван Константинов, Степан Петров, Анатолий Кириллин, Иннокентий Луковцев, Елена Маркова, Вероника Максимова, Спартак Ларионов
О фильме: Поссорившись с отцом, Алтан приезжает работать на Крайний Север. Ему предстоит провести целый месяц в одиночестве на безлюдном острове. Но вскоре у Алтана появляется сосед — старик Байбал. Он приехал сюда доживать свои последние дни и просит Алтана похоронить его рядом с могилой жены. Однажды парень узнает, что у Байбала в молодости пропала дочь. Он уговаривает старика создать развлекательный видеоблог, чтобы найти ее, а заодно оттянуть день смерти. Каждый день Алтан делает всё, чтобы старик захотел прожить еще один прекрасный день…
Качество: WEBRip 720p
Видео: MPEG-4 AVC, 1950 Кбит/с, 1280x532, 30.000 кадр/с
Аудио: Русский (AAC, 2 ch, 153 Кбит/с)
Продолжительность: 01:44:14
Перевод: Не требуется

Скриншоты



MediaInfo

General
Unique ID : 61241306723473884123993498942277797529 (0x2E12A58A8A6EFACD8EF041E891BDC699)
Complete name : D:\2020 рипы\Надо мною солнце не садится\Nado.mnoyu.solntse ne. saditsya.2020.x264.WEBRip(720p)-MediaBit.mkv
Format : Matroska
Format version : Version 4 / Version 2
File size : 1.53 GiB
Duration : 1 h 44 min
Overall bit rate : 2 106 kb/s
Movie name : Надо мною солнце не садится (2019)
Encoded date : UTC 2020-06-29 17:34:20
Writing application : mkvmerge v25.0.0 ('Prog Noir') 64-bit
Writing library : libebml v1.3.6 + libmatroska v1.4.9 / Lavf58.20.100
ENCODING_INFO : MATROSKA,WEBM > MKV
Video
ID : 1
Format : AVC
Format/Info : Advanced Video Codec
Format profile : High@L4.1
Format settings : CABAC / 7 Ref Frames
Format settings, CABAC : Yes
Format settings, ReFrames : 7 frames
Codec ID : V_MPEG4/ISO/AVC
Duration : 1 h 44 min
Bit rate : 1 950 kb/s
Width : 1 280 pixels
Height : 532 pixels
Display aspect ratio : 2.40:1
Frame rate mode : Constant
Frame rate : 30.000 FPS
Color space : YUV
Chroma subsampling : 4:2:0
Bit depth : 8 bits
Scan type : Progressive
Bits/(Pixel*Frame) : 0.095
Stream size : 1.42 GiB (93%)
Title : MediaBit
Writing library : x264 core 157 r2958 57baac4
Encoding settings : cabac=1 / ref=7 / deblock=1:-3:-3 / analyse=0x3:0x133 / me=umh / subme=9 / psy=1 / psy_rd=1.00:0.15 / mixed_ref=1 / me_range=48 / chroma_me=1 / trellis=1 / 8x8dct=1 / cqm=0 / deadzone=21,11 / fast_pskip=1 / chroma_qp_offset=-3 / threads=6 / lookahead_threads=1 / sliced_threads=0 / nr=0 / decimate=1 / interlaced=0 / bluray_compat=0 / constrained_intra=0 / bframes=7 / b_pyramid=2 / b_adapt=2 / b_bias=11 / direct=3 / weightb=1 / open_gop=0 / weightp=2 / keyint=300 / keyint_min=30 / scenecut=23 / intra_refresh=0 / rc_lookahead=60 / rc=2pass / mbtree=1 / bitrate=1950 / ratetol=1.0 / qcomp=0.60 / qpmin=0 / qpmax=69 / qpstep=4 / cplxblur=20.0 / qblur=0.5 / ip_ratio=1.40 / aq=1:0.90
Language : Russian
Default : Yes
Forced : No
Audio
ID : 2
Format : AAC
Format/Info : Advanced Audio Codec
Format profile : LC
Codec ID : A_AAC-2
Duration : 1 h 44 min
Bit rate : 153 kb/s
Channel(s) : 2 channels
Channel positions : Front: L R
Sampling rate : 44.1 kHz
Frame rate : 43.066 FPS (1024 SPF)
Compression mode : Lossy
Stream size : 114 MiB (7%)
Title : Оригинал
Language : Russian
Default : Yes
Forced : No
Menu
00:00:00.000 : :Глава 1
00:19:38.300 : :Глава 2
00:31:45.867 : :Глава 3
00:43:22.400 : :Глава 4
00:54:36.300 : :Глава 5
01:06:23.567 : :Глава 6
01:17:26.533 : :Глава 7
01:27:34.900 : :Глава 8
01:39:09.700 : :Глава 9
[Profile] [PM]
Display posts:    
Reply to topic

Current time is: 05-Jul 22:20

All times are UTC + 3



You cannot post new topics in this forum
You cannot reply to topics in this forum
You cannot edit your posts in this forum
You cannot delete your posts in this forum
You cannot vote in polls in this forum
You cannot attach files in this forum
You cannot download files in this forum