Надо мною солнце не садится (2019) WEBRip от GeneralFilm

Reply to topic
 
Author Message

vsobbol ®

Gender: Male

Longevity: 1 year 7 months

Posts: 608

Location: Донецк

Post 30-Jun-2020 06:54

[Quote]

Надо мною солнце не садится
Год выпуска: 2019
Жанр: Драма, комедия
Выпущено: Россия, "Сахафильм"
Режиссер: Любовь Борисова
В ролях: Иван Константинов, Степан Петров, Анатолий Кириллин, Иннокентий Луковцев, Елена Маркова, Вероника Максимова, Спартак Ларионов
О фильме: Поссорившись с отцом, Алтан приезжает работать на Крайний Север. Ему предстоит провести целый месяц в одиночестве на безлюдном острове. Но вскоре у Алтана появляется сосед — старик Байбал. Он приехал сюда доживать свои последние дни и просит Алтана похоронить его рядом с могилой жены. Однажды парень узнает, что у Байбала в молодости пропала дочь. Он уговаривает старика создать развлекательный видеоблог, чтобы найти ее, а заодно оттянуть день смерти. Каждый день Алтан делает всё, чтобы старик захотел прожить еще один прекрасный день…

Качество: WEBRip
Видео: XviD build 73, 672x272 (2,40:1), 865 Kbps (0.158 bit/pixel)
Аудио: 48.0 kHz, MP3, 2/0 ch, 128 kbps
Продолжительность: 01:44:14
Перевод: Не требуется [Русский]
Cубтитры: русские [на песни]

Скриншоты

MediaInfo

General
Complete name : D:\Razdachi\Nado.Mnoyu.Solnce.Ne.Saditsya.2020.WEB-Rip.GeneralFilm.avi
Format : AVI
Format/Info : Audio Video Interleave
File size : 749 MiB
Duration : 1 h 44 min
Overall bit rate : 1 004 kb/s
Writing application : VirtualDubMod 1.5.10.3 | www.virtualdub-fr.org || (build 2550/release)
Writing library : VirtualDubMod build 2550/release
Video
ID : 0
Format : MPEG-4 Visual
Format profile : Advanced Simple@L5
Format settings : BVOP1 / Custom Matrix
Format settings, BVOP : 1
Format settings, QPel : No
Format settings, GMC : No warppoints
Format settings, Matrix : Custom
Codec ID : XVID
Codec ID/Hint : XviD
Duration : 1 h 44 min
Bit rate : 865 kb/s
Width : 672 pixels
Height : 272 pixels
Display aspect ratio : 2.471
Frame rate : 30.000 FPS
Color space : YUV
Chroma subsampling : 4:2:0
Bit depth : 8 bits
Scan type : Progressive
Compression mode : Lossy
Bits/(Pixel*Frame) : 0.158
Stream size : 645 MiB (86%)
Writing library : XviD 73
Audio
ID : 1
Format : MPEG Audio
Format version : Version 1
Format profile : Layer 3
Codec ID : 55
Codec ID/Hint : MP3
Duration : 1 h 44 min
Bit rate mode : Constant
Bit rate : 128 kb/s
Channel(s) : 2 channels
Sampling rate : 48.0 kHz
Compression mode : Lossy
Stream size : 95.4 MiB (13%)
Alignment : Aligned on interleaves
Interleave, duration : 33 ms (1.00 video frame)
Interleave, preload duratio : 504 ms
Релиз от:
[Profile] [PM]
Display posts:    
Reply to topic

Current time is: 05-Jul 22:22

All times are UTC + 3



You cannot post new topics in this forum
You cannot reply to topics in this forum
You cannot edit your posts in this forum
You cannot delete your posts in this forum
You cannot vote in polls in this forum
You cannot attach files in this forum
You cannot download files in this forum