Двое на миллион [1-20 выпуск из ??] (2020) WEBRip 720p от Files-х

Reply to topic
 
Author Message

papa1951deda ®

Gender: Male

Longevity: 2 years 2 months

Posts: 855

Location: Казахстан

Post 03-Sep-2020 09:00

[Quote]

Двое на миллион Год выпуска: 2020
Жанр: Ток-шоу
Выпущено: Россия, ТНТ
Ведущий: Павел Воля
О фильме: Звезды шоу-бизнеса, артисты, блогеры и медиаперсоны придут в гости в студию к Павлу Воле, чтобы выиграть миллион! Задача звезд – давать правильные ответы и сохранять в банке деньги. Ведь за каждый неправильный ответ со счета будет сниматься по 100 тысяч рублей, а в финальном раунде лишь один из игроков заберет оставшуюся сумму себе. Кому удастся заработать миллион, смотри в новом шоу «Двое на миллион».
Качество: WEBRip 720p
Видео: MPEG-4 AVC, 3000 Кбит/с, 1280x720, 25 кадр/с
Аудио: AC3, 2 ch, 192 Кбит/с
Продолжительность: 20 x ~ 00:49:00
Перевод: Не требуется [Русский]
Cубтитры: нет

Скриншоты

MediaInfo

General
Unique ID : 224896603259373070873048768781953616090 (0xA93182A073FF7503B9BA5D52A53D48DA)
Complete name : H:\шоу\Двое на миллион .s01.2020.WEB-DL 720p.Files-x\01. Двое на миллион .s01.2020.WEB-DL 720p.Files-x.mkv
Format : Matroska
File size : 1.06 GiB
Duration : 47mn 24s
Overall bit rate : 3 190 Kbps
Encoded date : UTC 2020-09-03 04:28:46
Writing application : mkvmerge v7.8.0 ('River Man') 32bit built on Apr 3 2015 12:11:22
Writing library : libebml v1.3.1 + libmatroska v1.4.2
Video
ID : 1
Format : AVC
Format/Info : Advanced Video Codec
Format profile : High@L3.1
Format settings, CABAC : Yes
Format settings, ReFrames : 1 frame
Codec ID : V_MPEG4/ISO/AVC
Duration : 47mn 24s
Bit rate mode : Variable
Bit rate : 2 935 Kbps
Maximum bit rate : 3 000 Kbps
Width : 1 280 pixels
Height : 720 pixels
Display aspect ratio : 16:9
Frame rate : 25.000 fps
Color space : YUV
Chroma subsampling : 4:2:0
Bit depth : 8 bits
Scan type : Progressive
Bits/(Pixel*Frame) : 0.127
Stream size : 995 MiB (92%)
Audio
ID : 2
Format : AC-3
Format/Info : Audio Coding 3
Mode extension : CM (complete main)
Codec ID : A_AC3
Duration : 47mn 24s
Bit rate mode : Constant
Bit rate : 192 Kbps
Channel(s) : 2 channels
Channel positions : Front: L R
Sampling rate : 44.1 KHz
Bit depth : 16 bits
Compression mode : Lossy
Delay relative to video : 9ms
Stream size : 65.1 MiB (6%)

Внимание! Раздача ведётся путём добавления новых серий

Раздача ведётся путём добавления новых серий, при каждом добавлении создаётся новый торрент. Чтобы начать докачку новой серии, пользователям необходимо сделать следующее:
- Остановить скачивание.
- Удалить старый торрент у себя из клиента (старые серии удалять не надо).
- Скачать новый торрент и запустить его у себя в клиенте вместо старого, при этом указать клиенту путь в старую папку куда и должно происходить скачивание новых серий.
Ваш клиент при этом должен произвести хеширование (проверку) старой папки (если не производит сам - помогите ему сделать это), и будет докачивать только те серии которых у вас ещё нет. Старые серии при этом не удаляются, а продолжают раздаваться!
Релиз от:

Release was prepared by RG Files-x

[Profile] [PM]
Display posts:    
Reply to topic

Current time is: 27-Jan 18:44

All times are UTC + 3



You cannot post new topics in this forum
You cannot reply to topics in this forum
You cannot edit your posts in this forum
You cannot delete your posts in this forum
You cannot vote in polls in this forum
You cannot attach files in this forum
You cannot download files in this forum