Кровь и сокровища / Blood & Treasure [сезон 1: серии 1-13 из 13] (2019) WEB-DLRip от Generalfilm | КПК | HDRezka

Reply to topic
 
Author Message

GORGIK ®

Gender: Male

Longevity: 1 year 11 months

Posts: 361

Location: СССР

Post 08-Sep-2020 14:58

[Quote]

Кровь и сокровища / Blood & Treasure Год выпуска: 2019
Жанр: Приключения
Выпущено: США, CBS Television Studios
Режиссер: Гай Норман Би, Стив Бойум, Холли Дэйл
В ролях: София Пернас, Мэтт Барр, Катя Винтер, Антонио Цупо, Тони Нэш, Майкл Джеймс Шоу, Джеймс Кэллис, Алисия Коппола, Карл Грабошас, Эйт Бен Аззуоз Брахим
О фильме: Дэнни Макнамара - бывший агент ФБР, специализирующийся розыске древних предметов искусства. Лекси Вазири - талантливый вор мира искусства, страдающая от трагической потери отца, в которой она обвиняет Дэнни. Агент нанимает ее, чтобы поймать загадочного террориста Фарука, финансирующего свои операции на деньги от краденных драгоценностей. Дэнни и Лекси помогает отец Чак, друг детства Дэнни, который работает в министерстве иностранных дел Ватикана в Риме. Во время охоты за своей целью, напарники неожиданно оказываются в центре 2000-летней битвы за колыбель цивилизации.

Качество: WEB-DLRip | КПК
Видео: MPEG-4 AVC (x264), 640x360, ~500 kbps, 23.976 fps
Аудио: AAC LC, 48.0 KHz, 2 ch, 128 Kbps
Продолжительность: 13 x ~ 00:40:00
Перевод / Озвучка: Профессиональный [многоголосый]
Cубтитры: нет

Скриншоты

MediaInfo

Complete name : N:\кино\Krov'.I.Sokrovishcha.AVC.KPK.GF\Krov'.I.Sokrovishcha.S01.2019.AVC.WEB-DLRip.KPK.HDRezka.GF\Krov'.I.Sokrovishcha.s01e03.2019.AVC.WEB-DLRip.KPK.HDRezka.GF.mp4
Format : MPEG-4
Codec ID : M4V (isom/iso2/avc1)
File size : 180 MiB
Duration : 39 min 46 s
Overall bit rate mode : Variable
Overall bit rate : 633 kb/s
Writing application : Lavf53.19.0
Video
ID : 1
Format : AVC
Format/Info : Advanced Video Codec
Format profile : High@L4.1
Format settings : CABAC / 8 Ref Frames
Format settings, CABAC : Yes
Format settings, ReFrames : 8 frames
Codec ID : avc1
Codec ID/Info : Advanced Video Coding
Duration : 39 min 46 s
Bit rate : 500 kb/s
Width : 640 pixels
Height : 360 pixels
Display aspect ratio : 16:9
Frame rate mode : Constant
Frame rate : 23.976 (23976/1000) FPS
Color space : YUV
Chroma subsampling : 4:2:0
Bit depth : 8 bits
Scan type : Progressive
Bits/(Pixel*Frame) : 0.091
Stream size : 142 MiB (79%)
Writing library : x264 core 146 r2538 121396c
Encoding settings : cabac=1 / ref=8 / deblock=1:-2:-2 / analyse=0x3:0x133 / me=umh / subme=10 / psy=1 / psy_rd=1.00:0.00 / mixed_ref=1 / me_range=24 / chroma_me=1 / trellis=2 / 8x8dct=1 / cqm=0 / deadzone=21,11 / fast_pskip=1 / chroma_qp_offset=-2 / threads=12 / lookahead_threads=2 / sliced_threads=0 / nr=0 / decimate=0 / interlaced=0 / bluray_compat=0 / constrained_intra=0 / bframes=8 / b_pyramid=2 / b_adapt=2 / b_bias=0 / direct=3 / weightb=1 / open_gop=0 / weightp=2 / keyint=240 / keyint_min=121 / scenecut=40 / intra_refresh=0 / rc_lookahead=40 / rc=2pass / mbtree=1 / bitrate=500 / ratetol=1.0 / qcomp=0.60 / qpmin=0 / qpmax=69 / qpstep=4 / cplxblur=20.0 / qblur=0.5 / ip_ratio=1.40 / aq=1:1.00
Menus : 3
Audio
ID : 2
Format : AAC
Format/Info : Advanced Audio Codec
Format profile : LC
Codec ID : mp4a-40-2
Duration : 39 min 46 s
Bit rate mode : Variable
Bit rate : 128 kb/s
Channel(s) : 2 channels
Channel positions : Front: L R
Sampling rate : 48.0 kHz
Frame rate : 46.875 FPS (1024 SPF)
Compression mode : Lossy
Stream size : 36.3 MiB (20%)
Default : Yes
Alternate group : 1
Menus : 3
Релиз от:
[Profile] [PM]
Display posts:    
Reply to topic

Current time is: 27-Oct 10:09

All times are UTC + 3



You cannot post new topics in this forum
You cannot reply to topics in this forum
You cannot edit your posts in this forum
You cannot delete your posts in this forum
You cannot vote in polls in this forum
You cannot attach files in this forum
You cannot download files in this forum