Разыскивается / Target Number One (Most Wanted) (2020) WEB-DL 1080p | MUZOBOZ

Reply to topic
 
Author Message

Monk ®

Gender: Male

Longevity: 1 year 10 months

Posts: 13064

Location: Казань

Post 16-Sep-2020 10:49

[Quote]

Разыскивается / Target Number One (Most Wanted) Год выпуска: 2020
Жанр: Триллер, криминал, биография
Выпущено: Канада, Caramel Film, Goldrush Entertainment
Режиссер: Дэниэл Роби
В ролях: Джош Хартнетт, Стивен МакХэтти, Джим Гэффиган, Дж.С. МакКензи, Антуан-Оливье Пилон, Роз-Мари Перро, Дон МакКеллар, Доменик Ди Роза, Марк Камачо, Ланиса Доун
О фильме: Фильм основан на реальных событиях. 1989. Канадский журналист по имени Виктор Малерк прикладывает все возможные силы, чтобы распутать очень странное дело молодого бывшего наркомана, которого зовут Даниэль. Парня обвиняют в крупных поставках героина, в связи с чем он был отправлен на столетний срок в тайскую тюрьму. Малерк стал понимать, что в этом деле присутствует крупный заговор и он старательно делает все возможное, чтобы спасти подставленного парня от заключения и страшных пыток...
Качество: WEB-DL 1080p
Видео: MPEG-4 AVC, 5625 Кбит/с, 1920x1080, 23.976 кадр/с
Аудио: Русский (AC3, 2 ch, 256 Кбит/с), английский (AC3, 6 ch, 640 Кбит/с)
Продолжительность: 02:04:58
Перевод: Любительский многоголосый [MUZOBOZ]
Субтитры: Английские

Скриншоты



MediaInfo

Общее
Уникальный идентификатор : 246998013113276553161339035792050399514 (0xB9D2164365B4DC889611290118D2A91A)
Полное имя : D:\Торренты\Target.Number.One.2020.1080p.WEB.DDP5.1.x264\Razyskivaetsya.2020.x264.WEB-DL(1080)-MediaBit.mkv
Формат : Matroska
Версия формата : Version 4
Размер файла : 5,70 Гбайт
Продолжительность : 2 ч. 5 м.
Общий поток : 6 485 Кбит/сек
Название фильма : Разыскивается / Target Number One (2020)
Дата кодирования : UTC 2020-08-05 07:11:46
Программа кодирования : mkvmerge v25.0.0 ('Prog Noir') 64-bit
Библиотека кодирования : libebml v1.3.6 + libmatroska v1.4.9
Видео
Идентификатор : 1
Формат : AVC
Формат/Информация : Advanced Video Codec
Профиль формата : High@L4
Настройки формата : CABAC / 2 Ref Frames
Параметр CABAC формата : Да
Параметр RefFrames формата : 2 кадра
Идентификатор кодека : V_MPEG4/ISO/AVC
Продолжительность : 2 ч. 4 м.
Битрейт : 5 625 Кбит/сек
Ширина : 1 920 пикселей
Высота : 1 080 пикселей
Соотношение сторон : 16:9
Режим частоты кадров : Постоянный
Частота кадров : 23,976 (24000/1001) кадра/сек
Цветовое пространство : YUV
Субдискретизация насыщенности : 4:2:0
Битовая глубина : 8 бит
Тип развёртки : Прогрессивная
Бит/(Пиксели*Кадры) : 0.113
Размер потока : 4,91 Гбайт (86%)
Заголовок : MediaBit
Библиотека кодирования : x264 core 155 r2901 7d0ff22
Язык : English
Default : Да
Forced : Нет
Цветовой диапазон : Limited
Основные цвета : BT.709
Характеристики трансфера : BT.709
Коэффициенты матрицы : BT.709
Аудио #1
Идентификатор : 2
Формат : AC-3
Формат/Информация : Audio Coding 3
Коммерческое название : Dolby Digital
Идентификатор кодека : A_AC3
Продолжительность : 2 ч. 5 м.
Вид битрейта : Постоянный
Битрейт : 256 Кбит/сек
Каналы : 2 канала
Channel layout : L R
Частота : 48,0 КГц
Частота кадров : 31,250 кадров/сек (1536 SPF)
Метод сжатия : С потерями
Размер потока : 230 Мбайт (4%)
Заголовок : MVO | @MUZOBOZ@ / MediaBit
Язык : Russian
Service kind : Complete Main
Default : Да
Forced : Нет
Аудио #2
Идентификатор : 3
Формат : AC-3
Формат/Информация : Audio Coding 3
Коммерческое название : Dolby Digital
Идентификатор кодека : A_AC3
Продолжительность : 2 ч. 4 м.
Вид битрейта : Постоянный
Битрейт : 640 Кбит/сек
Каналы : 6 каналов
Channel layout : L R C LFE Ls Rs
Частота : 48,0 КГц
Частота кадров : 31,250 кадров/сек (1536 SPF)
Метод сжатия : С потерями
Размер потока : 572 Мбайт (10%)
Заголовок : Original
Язык : English
Service kind : Complete Main
Default : Нет
Forced : Нет
Текст #1
Идентификатор : 4
Формат : UTF-8
Идентификатор кодека : S_TEXT/UTF8
Идентификатор кодека/Информация : UTF-8 Plain Text
Продолжительность : 1 ч. 57 м.
Битрейт : 60 бит/сек
Count of elements : 1646
Размер потока : 52,2 Кбайт (0%)
Заголовок : English
Язык : English
Default : Нет
Forced : Нет
Текст #2
Идентификатор : 5
Формат : UTF-8
Идентификатор кодека : S_TEXT/UTF8
Идентификатор кодека/Информация : UTF-8 Plain Text
Продолжительность : 1 ч. 53 м.
Битрейт : 2 бит/сек
Count of elements : 90
Размер потока : 2,47 Кбайт (0%)
Заголовок : English - [Forced]
Язык : English
Default : Нет
Forced : Нет
[Profile] [PM]
Display posts:    
Reply to topic

Current time is: 25-Sep 23:01

All times are UTC + 3



You cannot post new topics in this forum
You cannot reply to topics in this forum
You cannot edit your posts in this forum
You cannot delete your posts in this forum
You cannot vote in polls in this forum
You cannot attach files in this forum
You cannot download files in this forum