Милдред Пирс / Mildred Pierce [1-5 серии из 5] (2011) HDTVRip от Generalfilm | КПК | LostFilm

Reply to topic
 
Author Message

mjjhec ®

Gender: Male

Longevity: 1 year 11 months

Posts: 723

Location: СССР

Post 18-Sep-2020 18:28

[Quote]

Милдред Пирс Год выпуска: 2011
Жанр: Драма
Выпущено: США, Home Box Office (HBO), John Wells Productions, Killer Films, Metro-Goldwyn-Mayer (MGM)
Режиссер: Тодд Хейнс
В ролях: Кейт Уинслет, Гай Пирс, Ивэн Рэйчел Вуд, Брайан Ф. О’ Бирн, Мелисса Лео, Джеймс ЛеГрос, Мерфи Гайер, Мэр Уиннингхэм, Марин Айрлэнд, Дайан Каган, Мириам Шор, Хэлли Фейффер, Хоуп Дэвис, Робб Уэбб, Маргарет Холл, Морган Тернер, Эрвин Фалкон, Элви Йост, Лаура Эстерман, Куинн Маккоулган, Ивэн Томпсон, Бренда Веле, Рональд Гаттмен, Кеннет Дженнингс, Тодд Обри Дэвис.
О фильме: В центре сюжета находится домохозяйка по имени Милдред Пирс Берагон, которая ушла от своего мужа-тирана и решила устроиться на работу официанткой. Все бы хорошо, но у героини еще и проблемы в отношениях с собственной дочерью. Экранизация по произведению Джеймс М. Кейн.
Качество: HDTVRip | КПК
Видео: Н.264, 640x360 (16:9), 23.976 fps, 400 Kbps
Аудио: AAC LC, 48 KHz, 2 ch, 128 Kbps
Продолжительность: 5 x ~01:00:00
Перевод / Озвучка: Профессиональный (многоголосый, закадровый) [LostFilm]

Скриншоты

MediaInfo

General
Complete name : F:\Rip\Mildred.Pierce.by.mjjhec\Mildred.Pierce.S01.E01.E02.HDTVRip.mp4
Format : MPEG-4
Format profile : Base Media
Codec ID : isom (isom/avc1/iso6)
File size : 461 MiB
Duration : 2 h 1 min
Overall bit rate mode : Variable
Overall bit rate : 532 kb/s
Encoded date : UTC 2020-09-18 10:35:55
Tagged date : UTC 2020-09-18 10:35:55
Video
ID : 1
Format : AVC
Format/Info : Advanced Video Codec
Format profile : High@L4.1
Format settings : CABAC / 10 Ref Frames
Format settings, CABAC : Yes
Format settings, Reference : 10 frames
Codec ID : avc1
Codec ID/Info : Advanced Video Coding
Duration : 2 h 1 min
Bit rate : 400 kb/s
Maximum bit rate : 1 314 kb/s
Width : 640 pixels
Height : 360 pixels
Display aspect ratio : 16:9
Frame rate mode : Constant
Frame rate : 23.976 (24000/1001) FPS
Color space : YUV
Chroma subsampling : 4:2:0
Bit depth : 8 bits
Scan type : Progressive
Bits/(Pixel*Frame) : 0.072
Stream size : 347 MiB (75%)
Title : 264@GPAC0.5.2-DEV-rev248-g39d5978-master
Writing library : x264 core 146 r2538 121396c
Encoding settings : cabac=1 / ref=10 / deblock=1:-3:-3 / analyse=0x3:0x133 / me=umh / subme=11 / psy=1 / psy_rd=1.00:1.00 / mixed_ref=1 / me_range=48 / chroma_me=1 / trellis=2 / 8x8dct=1 / cqm=0 / deadzone=21,11 / fast_pskip=0 / chroma_qp_offset=-4 / threads=6 / lookahead_threads=1 / sliced_threads=0 / nr=0 / decimate=0 / interlaced=0 / bluray_compat=0 / constrained_intra=0 / bframes=10 / b_pyramid=2 / b_adapt=2 / b_bias=0 / direct=3 / weightb=1 / open_gop=0 / weightp=2 / keyint=240 / keyint_min=23 / scenecut=40 / intra_refresh=0 / rc_lookahead=60 / rc=2pass / mbtree=0 / bitrate=400 / ratetol=1.0 / qcomp=0.60 / qpmin=0 / qpmax=69 / qpstep=4 / cplxblur=20.0 / qblur=0.5 / vbv_maxrate=14000 / vbv_bufsize=14000 / nal_hrd=none / filler=0 / ip_ratio=1.40 / pb_ratio=1.30 / aq=1:1.00
Encoded date : UTC 2020-09-18 10:35:55
Tagged date : UTC 2020-09-18 10:37:19
Codec configuration box : avcC
Audio
ID : 2
Format : AAC LC
Format/Info : Advanced Audio Codec Low Complexity
Codec ID : mp4a-40-2
Duration : 2 h 1 min
Bit rate mode : Variable
Bit rate : 128 kb/s
Maximum bit rate : 138 kb/s
Channel(s) : 2 channels
Channel layout : L R
Sampling rate : 48.0 kHz
Frame rate : 46.875 FPS (1024 SPF)
Compression mode : Lossy
Stream size : 111 MiB (24%)
Encoded date : UTC 2020-09-18 08:10:13
Tagged date : UTC 2020-09-18 10:37:19
Релиз от:
[Profile] [PM]

Jumper

Longevity: 9 months 6 days

Posts: 25

Post 22-Sep-2020 19:13 (after 4 days)

[Quote]

Спасибо за мини сериал
[Profile] [PM]

mjjhec ®

Gender: Male

Longevity: 1 year 11 months

Posts: 723

Location: СССР

Post 22-Sep-2020 22:58 (after 3 hours)

[Quote]

Обращайтесь.
[Profile] [PM]
Display posts:    
Reply to topic

Current time is: 27-Oct 08:53

All times are UTC + 3



You cannot post new topics in this forum
You cannot reply to topics in this forum
You cannot edit your posts in this forum
You cannot delete your posts in this forum
You cannot vote in polls in this forum
You cannot attach files in this forum
You cannot download files in this forum