Пуля Дурова [1-2 серии из 2] (2018) WEB-DLRip от Generalfilm | КПК

Reply to topic
 
Author Message

GORGIK ®

Gender: Male

Longevity: 1 year 11 months

Posts: 360

Location: СССР

Post 19-Sep-2020 09:52

[Quote]

Пуля Дурова Год выпуска: 2018
Жанр: Детектив
Выпущено: Россия, Проджект фильм
Режиссер: Вячеслав Рогожкин
В ролях: Сергей Жарков, Валерия Моисеева, Алексей Ошурков, Александр Наумов, Александр Андриенко, Катарина Шпиринг, Дмитрий Гусев, Александр Коротков (II), Артём Мельничук, Максим Битюков, Анна Бачалова, Александр Вдовин, Максим Дромашко, Александр Бобров, Лев Прыгунов
О фильме: Из-за тяжёлого ранения в голову следователя Дурова снимают с основной работы и назначают директором в районный музей полиции. На новой «административной» должности Дуров не оставляет следовательскую работу - теперь он негласно расследует дела, списанные в архив. При этом, после ранения главный герой начинает существовать в двух плоскостях, словно, проживает две жизни. Первая – события объективной реальности (работа, друзья, антагонисты, любовь), вторая жизнь субъективно протекает в голове героя, Дурова откидывает в прошлое, где он становится непосредственным участником событий, с которыми связано первое архивное дело Дурова. 1944 год. Немецкий концентрационный лагерь. Немцы на глазах военнопленных казнят героя-подпольщика Лужина. Все факты указывают на то, что сдал Лужина его же сослуживец Каюров. Но справедливо ли на Каюров всю жизнь носил ярлык предателя? И если не Каюров, то кто?! Это и предстоит выяснить Дурову, пройдя через все мытарства вместе с героями военных событий…

Качество: WEB-DLRip | КПК
Видео: MPEG-4 AVC (x264), 640x360, ~500 kbps, 25.000 fps
Аудио: AAC LC, 48.0 KHz, 2 ch, 128 Kbps
Продолжительность: 2 х ~ 00:54:00
Перевод / Озвучка: Не требуется [Русский]
Cубтитры: нет

Скриншоты

MediaInfo

Complete name : F:\КИНО\Pulya.Durova.S01.2018.AVC.WEB-DLRip.KPK.GF\Pulya.Durova.s01e01.2018.AVC.WEB-DLRip.KPK.GF.mp4
Format : MPEG-4
Codec ID : M4V (isom/iso2/avc1)
File size : 248 MiB
Duration : 54 min 44 s
Overall bit rate mode : Variable
Overall bit rate : 634 kb/s
Writing application : Lavf53.19.0
Video
ID : 1
Format : AVC
Format/Info : Advanced Video Codec
Format profile : High@L4.1
Format settings, CABAC : Yes
Format settings, RefFrames : 8 frames
Codec ID : avc1
Codec ID/Info : Advanced Video Coding
Duration : 54 min 44 s
Bit rate : 500 kb/s
Width : 640 pixels
Height : 360 pixels
Display aspect ratio : 16:9
Frame rate mode : Constant
Frame rate : 25.000 FPS
Color space : YUV
Chroma subsampling : 4:2:0
Bit depth : 8 bits
Scan type : Progressive
Bits/(Pixel*Frame) : 0.087
Stream size : 196 MiB (79%)
Writing library : x264 core 148 r2638 7599210
Encoding settings : cabac=1 / ref=8 / deblock=1:-1:-1 / analyse=0x3:0x133 / me=umh / subme=10 / psy=1 / psy_rd=1.00:0.00 / mixed_ref=1 / me_range=24 / chroma_me=1 / trellis=2 / 8x8dct=1 / cqm=0 / deadzone=21,11 / fast_pskip=1 / chroma_qp_offset=-2 / threads=6 / lookahead_threads=1 / sliced_threads=0 / nr=0 / decimate=1 / interlaced=0 / bluray_compat=0 / constrained_intra=0 / bframes=8 / b_pyramid=2 / b_adapt=2 / b_bias=0 / direct=3 / weightb=1 / open_gop=0 / weightp=2 / keyint=250 / keyint_min=126 / scenecut=40 / intra_refresh=0 / rc_lookahead=40 / rc=2pass / mbtree=1 / bitrate=500 / ratetol=1.0 / qcomp=0.60 / qpmin=0 / qpmax=69 / qpstep=4 / cplxblur=20.0 / qblur=0.5 / ip_ratio=1.40 / aq=1:1.00
Menus : 3
Audio
ID : 2
Format : AAC
Format/Info : Advanced Audio Codec
Format profile : LC
Codec ID : 40
Duration : 54 min 44 s
Bit rate mode : Variable
Bit rate : 128 kb/s
Channel(s) : 2 channels
Channel positions : Front: L R
Sampling rate : 48.0 kHz
Frame rate : 46.875 FPS (1024 SPF)
Compression mode : Lossy
Stream size : 50.1 MiB (20%)
Default : Yes
Alternate group : 1
Menus : 3
Релиз от:
[Profile] [PM]
Display posts:    
Reply to topic

Current time is: 27-Oct 08:44

All times are UTC + 3



You cannot post new topics in this forum
You cannot reply to topics in this forum
You cannot edit your posts in this forum
You cannot delete your posts in this forum
You cannot vote in polls in this forum
You cannot attach files in this forum
You cannot download files in this forum