Крепкие орешки [1 сезон: 1-28 серии из 32] (2019) SATRip от Files-x

Reply to topic
 
Author Message

Nicodem ®

Gender: Male

Longevity: 2 years 4 months

Posts: 814

Post 02-Mar-2021 01:11

[Quote]

Крепкие орешки
Год выпуска: 2019
Жанр: Детектив
Выпущено: Россия, "Триикс Медиа"
Режиссер: Арменак Назикян, Сергей Щербин
В ролях: Филипп Азаров, Борис Бедросов, Андрей Бабенко, Лайма Зайцева, Олег Абалян, Вячеслав Аркунов, Тадас Шимилёв, Даниил Щипицын, Екатерина Зорина, Мальвина Кожурова, Павел Платонов (младший), Александр Карпухов, Бекарий Цулукидзе, Михаил Касапов, Алексей Нилов, Эдуард Сергиеня, Наталья Мызникова, Элис Дарс, Евгений Карпов, Олег Метелев, Никита Брусов, Дмитрий Гудим, Елена Шаманова, Александра Ильвес, Яна Флоринская, Елизавета Фалилеева, Кристина Козуб, Андрей Погребинский, Тина Тарусина, Артём Цыпин, Родион Рудаков, Виктор Шуралев, Елена Карпова, Александра Селиванова, Вячеслав Гасай, Екатерина Ильина (III), Анастасия Лёвина (III), Василий Рукша, Алина Мурзагалиева, Евгений Тимохин (II), Александр Кратиров, Ольга Сухорукова, Анна Королева (II), Александр Брыкин, Сергей Евдокимов, Георгий Николаев (II), Николай Сороканов, Дмитрий Новиков (III), Илья Тиунов, Александр Петров (VI), Виктор Смоляр, Вадим Журавлёв (II), Владимир Гененрайх, Анастасия Евланова, Андрей Анкудинов (II), Ксения Кандаурова, Илья Залесов, Александр Удальцов, Артём Саранцев, Василий Башмаков, Андрей Анкудинов, Вероника Дмитриева, Илья Матюшин, Антон Гриценко, Екатерина Зеленцова, Элина Щербина
О фильме: Оперуполномоченные УВД по Комендантскому району Петербурга Леонид Лавров и Юрий Романов – полные противоположности друг друга. Романов — примерный семьянин, спортсмен. Лавров — ловелас, завсегдатай самых злачных мест города. Каждая их встреча завершается горячим спором. Начальство уже давно научилось извлекать выгоду из вечных разногласий двух оперов — ведь у каждого из них не только свои взгляды на жизнь, но и свои подходы к оперативно-розыскной деятельности...

Качество: SATRip
Видео: XviD, ~ 1592 Кбит/с, 720x400, 25 кадр/с
Аудио: AC3, 2 ch, 192 Кбит/с
Продолжительность: 28 x ~ 00:37:30
Перевод: Не требуется
Cубтитры: нет

Скриншоты


MediaInfo

General
Complete name : C:01.Крепкие орешки.s01.E01 (1 часть).(2019).SATRip.by.Nicodem.Files-x.avi
Format : AVI
Format/Info : Audio Video Interleave
File size : 485 MiB
Duration : 37mn 49s
Overall bit rate : 1 794 Kbps
Writing application : VirtualDubMod 1.5.10.3 | www.virtualdub-fr.org || (build 2550/release)
Writing library : VirtualDubMod build 2550/release
Video
ID : 0
Format : MPEG-4 Visual
Format profile : Advanced Simple@L5
Format settings, BVOP : 1
Format settings, QPel : No
Format settings, GMC : No warppoints
Format settings, Matrix : Custom
Codec ID : XVID
Codec ID/Hint : XviD
Duration : 37mn 49s
Bit rate : 1 592 Kbps
Width : 720 pixels
Height : 400 pixels
Display aspect ratio : 16:9
Frame rate : 25.000 fps
Color space : YUV
Chroma subsampling : 4:2:0
Bit depth : 8 bits
Scan type : Progressive
Compression mode : Lossy
Bits/(Pixel*Frame) : 0.221
Stream size : 431 MiB (89%)
Writing library : XviD 73
Audio
ID : 1
Format : AC-3
Format/Info : Audio Coding 3
Mode extension : CM (complete main)
Codec ID : 2000
Duration : 37mn 49s
Bit rate mode : Constant
Bit rate : 192 Kbps
Channel(s) : 2 channels
Channel positions : Front: L R
Sampling rate : 48.0 KHz
Bit depth : 16 bits
Compression mode : Lossy
Stream size : 51.9 MiB (11%)
Alignment : Split accross interleaves
Interleave, duration : 40 ms (1.00 video frame)
Interleave, preload duration : 500 ms

Содержание

(01) 1 серия "Перевозчик" (1 часть)
(02) 2 серия "Безжалостные люди" (2 часть)
(03) 3 серия "Криминальное чтиво"
(04) 4 серия "Робокоп"
(05) 5 серия "Чужой"
(06) 6 серия "Пятница, 13-е"
(07) 7 серия "Маска"
(08) 8 серия "Вспомнить всё"
(09) 9 серия "Настоящая любовь"
(10) 10 серия "Кинг-Конг"
(11) 11 серия "Один дома"
(12) 12 серия "Крёстный отец"
(13) 13 серия "Бешенные псы"
(14) 14 серия "Девушка с татуировкой дракона"
(15) 15 серия "Способный ученик"
(16) 16 серия "Опасные связи"
(17) 17 серия "Звонок"
(18) 18 серия "Скорость"
(19) 19 серия "Двойной удар"
(20) 20 серия "Выживший"
(21) 21 серия "С меня хватит"
(22) 22 серия "Хищник"
(23) 23 серия "Роковое влечение"
(24) 24 серия "Хороший, плохой, злой"
(25) 25 серия "Сердцеедки"
(26) 26 серия "Все деньги мира"
(27) 27 серия "Призрак"
(28) 28 серия "Миллионер из трущоб"
(29) 29 серия "Сумерки"
(30) 30 серия "Мальчики - налетчики"
(31) 31 серия "Малышка на миллион"
(32) 32 серия "Хороший день, чтобы умереть"

Раздача ведётся путём добавления новых серий

Внимание! Раздача ведётся путём добавления новых серий; при каждом добавлении создаётся новый торрент.
Чтобы начать докачку новой серии, пользователям необходимо сделать следующее:
1. Остановить скачивание;
2. Удалить старый торрент у себя из клиента (старые серии удалять не надо);
3. Скачать новый торрент и запустить его у себя в клиенте вместо старого, при этом указать клиенту путь в старую папку куда и должно происходить скачивание новых серий. Ваш клиент при этом должен произвести хеширование (проверку) старой папки и будет докачивать только те серии, которых у вас ещё нет. Старые серии при этом не удаляются, а продолжают раздаваться! Eсли вы уже удалили старые серии, то предотвратить повторную закачку старых серий можно, отжав галочку в соответствующих местах при запуске нового торрента.
Релиз от:

Release was prepared by RG Files-x

[Profile] [PM]
Display posts:    
Reply to topic

Current time is: 17-Apr 07:37

All times are UTC + 3



You cannot post new topics in this forum
You cannot reply to topics in this forum
You cannot edit your posts in this forum
You cannot delete your posts in this forum
You cannot vote in polls in this forum
You cannot attach files in this forum
You cannot download files in this forum