Сквозь снег / Snowpiercer [3 сезон: серии 1-10 из 10] (2022) WEB-DLRip от Generalfilm | КПК | Пифагор

Reply to topic
 
Author Message

mjjhec ®

Gender: Male

Longevity: 3 years 10 months

Posts: 1356

Location: СССР

Post 05-Apr-2022 16:29

[Quote]

Сквозь снег 3 Год выпуска: 2022
Жанр: Фантастика, боевик, триллер, драма
Выпущено: США, CJ Entertainment, Studio T, Tomorrow Studios
Режиссер: Джеймс Хоуз, Сэм Миллер, Хелен Шейвер
В ролях: Дженнифер Коннелли, Давид Диггс, Мики Самнер, Шейла Ванд, Лена Холл, Элисон Райт, Иддо Голдберг, Аарон Гленнэйн, Карин Коновал, Анналиса Бассо, Майк О`Мэлли.
О фильме: Мир претерпел техногенную катастрофу, которая привела к новому ледниковому периоду. По трансевразийской магистрали мчится гигантский поезд, заполненный выжившими. В поезде царит строгая классовая иерархия: от правящей элиты в первых вагонах до угнетённых в хвосте.
Качество: WEB-DLRip | КПК
Видео: H.264, 640x360 (16:9), 23.976 fps, 400 kb/s
Аудио: AAC, 48 kHz, 2 ch, 128 kb/s
Продолжительность: 10 x ~00:46:00
Перевод / Озвучка: Дублированный [Пифагор по заказу Netflix]

Скриншоты


MediaInfo

Complete name : F:\Rip\Snowpiercer.S03.by.mjjhec\Snowpiercer.S03E03.WEB-DLRip.mp4
Format : MPEG-4
Format profile : Base Media
Codec ID : isom (isom/avc1)
File size : 173 MiB
Duration : 45 min 28 s
Overall bit rate mode : Variable
Overall bit rate : 532 kb/s
Encoded date : UTC 2022-04-04 17:22:40
Tagged date : UTC 2022-04-04 17:22:40
Video
ID : 1
Format : AVC
Format/Info : Advanced Video Codec
Format profile : High@L4.1
Format settings : CABAC / 9 Ref Frames
Format settings, CABAC : Yes
Format settings, Reference : 9 frames
Codec ID : avc1
Codec ID/Info : Advanced Video Coding
Duration : 45 min 28 s
Bit rate : 400 kb/s
Maximum bit rate : 1 823 kb/s
Width : 640 pixels
Height : 360 pixels
Display aspect ratio : 16:9
Frame rate mode : Constant
Frame rate : 23.976 (24000/1001) FPS
Color space : YUV
Chroma subsampling : 4:2:0
Bit depth : 8 bits
Scan type : Progressive
Bits/(Pixel*Frame) : 0.072
Stream size : 130 MiB (75%)
Writing library : x264 core 125 r2208 d9d2288
Encoding settings : cabac=1 / ref=9 / deblock=1:-3:-3 / analyse=0x3:0x133 / me=umh / subme=11 / psy=1 / psy_rd=1.00:0.00 / mixed_ref=1 / me_range=32 / chroma_me=1 / trellis=2 / 8x8dct=1 / cqm=0 / deadzone=21,11 / fast_pskip=1 / chroma_qp_offset=-4 / threads=6 / lookahead_threads=1 / sliced_threads=0 / nr=0 / decimate=1 / interlaced=0 / bluray_compat=0 / constrained_intra=0 / bframes=9 / b_pyramid=2 / b_adapt=2 / b_bias=0 / direct=3 / weightb=1 / open_gop=0 / weightp=2 / keyint=240 / keyint_min=23 / scenecut=40 / intra_refresh=0 / rc_lookahead=40 / rc=2pass / mbtree=1 / bitrate=400 / ratetol=1.0 / qcomp=0.60 / qpmin=0 / qpmax=69 / qpstep=4 / cplxblur=20.0 / qblur=0.5 / vbv_maxrate=14000 / vbv_bufsize=14000 / nal_hrd=none / ip_ratio=1.40 / aq=1:1.00
Encoded date : UTC 2022-04-04 17:22:40
Tagged date : UTC 2022-04-04 17:22:44
Codec configuration box : avcC
Audio
ID : 2
Format : AAC LC
Format/Info : Advanced Audio Codec Low Complexity
Codec ID : mp4a-40-2
Duration : 45 min 28 s
Bit rate mode : Variable
Bit rate : 128 kb/s
Maximum bit rate : 138 kb/s
Channel(s) : 2 channels
Channel layout : L R
Sampling rate : 48.0 kHz
Frame rate : 46.875 FPS (1024 SPF)
Compression mode : Lossy
Stream size : 41.6 MiB (24%)
Encoded date : UTC 2022-04-04 17:22:43
Tagged date : UTC 2022-04-04 17:22:44
Релиз от:
[Profile] [PM]

Otkritka

Gender: Female

Longevity: 11 months 6 days

Posts: 11

Post 05-Apr-2022 18:40 (after 2 hours 11 minutes)

[Quote]

Спасибо !!! aa
[Profile] [PM]

mjjhec ®

Gender: Male

Longevity: 3 years 10 months

Posts: 1356

Location: СССР

Post 05-Apr-2022 22:19 (after 3 hours)

[Quote]

Пожалуйста.
[Profile] [PM]
Display posts:    
Reply to topic

Current time is: 04-Oct 19:19

All times are UTC + 3



You cannot post new topics in this forum
You cannot reply to topics in this forum
You cannot edit your posts in this forum
You cannot delete your posts in this forum
You cannot vote in polls in this forum
You cannot attach files in this forum
You cannot download files in this forum