Доктор Иванов. Мать и сын [4 сезон: 1-4 серия из 4] (2022) WEB-DLRip от Files-x

Reply to topic
 
Author Message

Серый1779 ®

Gender: Male

Longevity: 3 years 6 months

Posts: 2399

Location: Украина

Post 13-May-2022 08:38

[Quote]

Доктор Иванов. Мать и сын
Год выпуска: 2022
Жанр: Мелодрама
Выпущено: Россия, Кинокомпания "Марс Медиа Энтертейнмент"
Режиссер: Валерия Ивановская
В ролях: Кирилл Жандаров, Дана Абызова, Сергей Мухин, Иван Паршин, Светлана Смирнова-Кацагаджиева, Владимир Крылов, Артур Ваха, Галина Сазонова, Илья Антоненко, Дмитрий Поднозов, Денис Пьянов, Татьяна Бедова, Ольга Онищенко, Татьяна Тузова, Мария Абрамова (II), Ярослав Ефременко, Пётр Натаров, Елена Руфанова, Наталья Батрак, Наталья Парашкина, Филипп Азаров, Вера Вольт, Ася Прохорова, Яромир Зайцев, Алексей Федькин, София Седзеневская, Артём Григорьев
О сериале: Рядом с поселком происходит страшное ДТП. Сергей оказывает помощь пострадавшим. В машине чиновника-бизнесмена Вересова оказывается замгубернатора области, который получает самые серьезные травмы и умирает в больнице. Спасая себя, Вересов пытается подкупить следователя и участкового, чтобы списать гибель замгубернатора на врачебную ошибку Иванова.

Качество: WEB-DLRip
Видео: XviD, ~ 1600 Кбит/с, 720x400, 25 кадр/с
Аудио: AC3, 2 ch, 192 Кбит/с
Продолжительность: 4 x ~ 00:45:00
Перевод: Не требуется
Субтитры: Нет

Скриншоты



MediaInfo

General
Complete name : G:\Доктор Иванов. Мать и сын.S04.(2022).WEB-DLRip.Files-x\01.Доктор Иванов. Мать и сын.S04.(2022).WEB-DLRip.Files-x.avi
Format : AVI
Format/Info : Audio Video Interleave
File size : 565 MiB
Duration : 44 min 7 s
Overall bit rate : 1 790 kb/s
Writing application : VirtualDubMod 1.5.10.3 | www.virtualdub-fr.org || (build 2550/release)
Writing library : VirtualDubMod build 2550/release
Video
ID : 0
Format : MPEG-4 Visual
Format profile : Advanced Simple@L5
Format settings : BVOP1 / Custom Matrix
Format settings, BVOP : 1
Format settings, QPel : No
Format settings, GMC : No warppoints
Format settings, Matrix : Custom
Codec ID : XVID
Codec ID/Hint : XviD
Duration : 44 min 7 s
Bit rate : 1 588 kb/s
Width : 720 pixels
Height : 400 pixels
Display aspect ratio : 16:9
Frame rate : 25.000 FPS
Color space : YUV
Chroma subsampling : 4:2:0
Bit depth : 8 bits
Scan type : Progressive
Compression mode : Lossy
Bits/(Pixel*Frame) : 0.221
Stream size : 501 MiB (89%)
Writing library : XviD 73
Audio
ID : 1
Format : AC-3
Format/Info : Audio Coding 3
Format settings, Endianness : Big
Codec ID : 2000
Duration : 44 min 7 s
Bit rate mode : Constant
Bit rate : 192 kb/s
Channel(s) : 2 channels
Channel positions : Front: L R
Sampling rate : 48.0 kHz
Frame rate : 31.250 FPS (1536 SPF)
Bit depth : 16 bits
Compression mode : Lossy
Stream size : 60.6 MiB (11%)
Alignment : Split accross interleaves
Interleave, duration : 40 ms (1.00 video frame)
Interleave, preload duration : 500 ms
Service kind : Complete Main

Раздача ведётся путём добавления новых серий

Внимание! Раздача ведётся путём добавления новых серий; при каждом добавлении создаётся новый торрент.
Чтобы начать докачку новой серии, пользователям необходимо сделать следующее:
1. Остановить скачивание;
2. Удалить старый торрент у себя из клиента (старые серии удалять не надо);
3. Скачать новый торрент и запустить его у себя в клиенте вместо старого, при этом указать клиенту путь в старую папку куда и должно происходить скачивание новых серий. Ваш клиент при этом должен произвести хеширование (проверку) старой папки и будет докачивать только те серии, которых у вас ещё нет. Старые серии при этом не удаляются, а продолжают раздаваться! Eсли вы уже удалили старые серии, то предотвратить повторную закачку старых серий можно, отжав галочку в соответствующих местах при запуске нового торрента.
Релиз от:

Release was prepared by RG Files-x

[Profile] [PM]
Display posts:    
Reply to topic

Current time is: 17-May 12:51

All times are UTC + 3



You cannot post new topics in this forum
You cannot reply to topics in this forum
You cannot edit your posts in this forum
You cannot delete your posts in this forum
You cannot vote in polls in this forum
You cannot attach files in this forum
You cannot download files in this forum