Вспышка [1-20 серии из 20] (2019) WEBRip-AVC от Files-x

Reply to topic
 
Author Message

Серый1779 ®

Gender: Male

Longevity: 3 years 7 months

Posts: 2457

Location: Украина

Post 16-May-2022 22:14

[Quote]

Вспышка
Год выпуска: 2019
Жанр: Боевик, комедия, детектив
Выпущено: Россия, Кинокомпания "IKa film"
Режиссер: Роман Ярославцев
В ролях: Иван Охлобыстин, Григорий Некрасов, Александр Ильин, Виктория Корлякова, Владимир Литвинов, Виктория Полторак, Анатолий Голуб, Ксения Дементьева, Дмитрий Есеневич, Валерий Зеленский (II), Кирилл Новицкий, Руслан Банковский, Антонина Иванова (II), Маргарита Киселите, Елена Дубровская, Николай Стонька, Марина Поддубная, Андрей Сенькин
О сериале: Следуя переводом из Главного управления МВД к новому месту назначения в Энск, молодой следователь Сева Пашин оказывается подозреваемым в убийстве. Отец, генерал-майор Евгений Александрович, в бешенстве: он даёт сыну всего два дня, чтобы тот со всем разобрался. Задача непосильная, но на удачу Севы в местном РОВД есть странный персонаж – криминальный фотограф Григорий Малинин по прозвищу Пыха. Вместе они быстро находят настоящего убийцу. Сева, впечатлённый способностями нового знакомого, простит отца помочь ему остаться в Энске. Так Сева становится старшим следователем энского РОВД, а Пыха – его помощником. Ассоциативный метод Малинина, замешанный на вдохновении, алкоголе и амурных похождениях, вступает в противоречие с жизненными принципами Пашина-младшего: разные характеры и разница в возрасте иногда порождают конфликты, но в целом они отлично дополняют друг друга.
Качество: WEBRip-AVC
Видео: MPEG-4 AVC, ~ 2000 Кбит/с, 1024x432, 25 кадр/с
Аудио: AC3, 2 ch, 192 Кбит/с
Продолжительность: 20 x ~ 00:49:17
Перевод: Не требуется
Субтитры: Русские

Скриншоты



MediaInfo

General
Unique ID : 150878145640003827184181274428532191967 (0x718212E8C323499B38E8E3DF8145F2DF)
Complete name : F:\Вспышка.(2019).WEBRip.(AVC).Files-x\01.Вспышка.(2019).WEBRip.(AVC).by.Серый1779.Files-x.mkv
Format : Matroska
Format version : Version 4 / Version 2
File size : 773 MiB
Duration : 49 min 17 s
Overall bit rate : 2 192 kb/s
Encoded date : UTC 2022-05-16 19:06:34
Writing application : mkvmerge v32.0.0 ('Astral Progressions') 64-bit
Writing library : libebml v1.3.7 + libmatroska v1.5.0
Video
ID : 1
Format : AVC
Format/Info : Advanced Video Codec
Format profile : High@L4.1
Format settings : CABAC / 9 Ref Frames
Format settings, CABAC : Yes
Format settings, RefFrames : 9 frames
Codec ID : V_MPEG4/ISO/AVC
Duration : 49 min 17 s
Bit rate : 2 000 kb/s
Width : 1 024 pixels
Height : 432 pixels
Display aspect ratio : 2.40:1
Frame rate mode : Constant
Frame rate : 25.000 FPS
Color space : YUV
Chroma subsampling : 4:2:0
Bit depth : 8 bits
Scan type : Progressive
Bits/(Pixel*Frame) : 0.181
Stream size : 704 MiB (91%)
Writing library : x264 core 146 r2538 121396c
Encoding settings : cabac=1 / ref=9 / deblock=1:-2:-1 / analyse=0x3:0x133 / me=umh / subme=9 / psy=1 / psy_rd=1.00:0.15 / mixed_ref=1 / me_range=32 / chroma_me=1 / trellis=2 / 8x8dct=1 / cqm=0 / deadzone=21,11 / fast_pskip=0 / chroma_qp_offset=-3 / threads=18 / lookahead_threads=3 / sliced_threads=0 / nr=0 / decimate=1 / interlaced=0 / bluray_compat=0 / constrained_intra=0 / bframes=9 / b_pyramid=2 / b_adapt=2 / b_bias=0 / direct=1 / weightb=1 / open_gop=0 / weightp=2 / keyint=250 / keyint_min=25 / scenecut=40 / intra_refresh=0 / rc=2pass / mbtree=0 / bitrate=2000 / ratetol=1.0 / qcomp=0.60 / qpmin=0 / qpmax=69 / qpstep=4 / cplxblur=20.0 / qblur=0.5 / ip_ratio=1.40 / pb_ratio=1.30 / aq=2:1.00
Default : Yes
Forced : No
Color range : Limited
Color primaries : BT.709
Transfer characteristics : BT.709
Matrix coefficients : BT.709
Audio
ID : 2
Format : AC-3
Format/Info : Audio Coding 3
Format settings, Endianness : Big
Codec ID : A_AC3
Duration : 49 min 17 s
Bit rate mode : Constant
Bit rate : 192 kb/s
Channel(s) : 2 channels
Channel positions : Front: L R
Sampling rate : 48.0 kHz
Frame rate : 31.250 FPS (1536 SPF)
Bit depth : 16 bits
Compression mode : Lossy
Stream size : 67.7 MiB (9%)
Service kind : Complete Main
Default : Yes
Forced : No
Text
ID : 3
Format : UTF-8
Codec ID : S_TEXT/UTF8
Codec ID/Info : UTF-8 Plain Text
Duration : 48 min 46 s
Bit rate : 108 b/s
Count of elements : 742
Stream size : 38.9 KiB (0%)
Default : Yes
Forced : No

Раздача ведётся путём добавления новых серий

Внимание! Раздача ведётся путём добавления новых серий; при каждом добавлении создаётся новый торрент.
Чтобы начать докачку новой серии, пользователям необходимо сделать следующее:
1. Остановить скачивание;
2. Удалить старый торрент у себя из клиента (старые серии удалять не надо);
3. Скачать новый торрент и запустить его у себя в клиенте вместо старого, при этом указать клиенту путь в старую папку куда и должно происходить скачивание новых серий. Ваш клиент при этом должен произвести хеширование (проверку) старой папки и будет докачивать только те серии, которых у вас ещё нет. Старые серии при этом не удаляются, а продолжают раздаваться! Eсли вы уже удалили старые серии, то предотвратить повторную закачку старых серий можно, отжав галочку в соответствующих местах при запуске нового торрента.
Релиз от:

Release was prepared by RG Files-x

[Profile] [PM]
Display posts:    
Reply to topic

Current time is: 01-Jul 11:28

All times are UTC + 3



You cannot post new topics in this forum
You cannot reply to topics in this forum
You cannot edit your posts in this forum
You cannot delete your posts in this forum
You cannot vote in polls in this forum
You cannot attach files in this forum
You cannot download files in this forum