СашаТаня [11 сезон: 1-20 серии из 40] (2022) WEBRip-AVC от Files-х

Reply to topic
 
Author Message

papa1951deda ®

Gender: Male

Longevity: 3 years 7 months

Posts: 1415

Location: Казахстан

Post 17-May-2022 20:20

[Quote]

СашаТаня Год выпуска: 2022
Жанр: Комедия
Выпущено: Россия, Производство ООО «Комеди Клаб Продакшн»
Режиссер: Александр Потапов
В ролях: Андрей Гайдулян, Валентина Рубцова, Артемий Широков, Алексей Климушкин, Андрей Свиридов, Алексей Гаврилов, Лариса Баранова (II), Виталий Гогунский, Арарат Кещян, Наталья Ходус, Виктор Полторацкий, Павел Кассинский, Сергей Рудзевич, Алина Кизиярова-Ланина
О сериале: В новом сезоне Сильвестру Андреевичу придётся превратиться из типичного олигарха в современного смарт-миллионера, который сортирует мусор и раздаёт еду нуждающимся. А Саша и Таня вынужденно станут частью нового имиджа Сергеева-старшего. При этом у Саши и Тани будет хватать и своих проблем: Саша серьёзно возьмётся за себя и будет часами пропадать в тренажёрном зале, а также в самолётах Москва – Санкт-Петербург, а Таня неожиданно превратится в жену Комарова и узнает много нового о спортивном питании. У Кати появится ухажёр-баскетболист, которого она будет тщательно скрывать, чтобы не волновать Таню. Но всё тайное становится явным, и в итоге это грозит серьёзными изменениями всему семейству. Ведь парень рано или поздно сделает Кате предложение, но что на него ответит Таня?

Качество: WEBRip-AVC
Видео: MPEG-4 AVC, ~ 1600 Кбит/с, 720x400, 25 кадр/с
Аудио: AC3, 2 ch, 192 Кбит/с
Продолжительность: 20 x ~ 00:23:00
Перевод: Не требуется
Субтитры: Нет

Скриншоты

MediaInfo

General
Unique ID : 235373359694650786471077127510788674859 (0xB11342997F855A3E9F27F657F534152B)
Complete name : F:\fiiles x\СашаТаня.S08.2022.WEB-DLRip. Files-x\02. СашаТаня.S08.2022.WEB-DLRip. Files-x.mkv
Format : Matroska
Format version : Version 2
File size : 293 MiB
Duration : 22 min 49 s
Overall bit rate : 1 793 kb/s
Encoded date : UTC 2022-05-16 22:04:46
Writing application : mkvmerge v7.8.0 ('River Man') 32bit built on Apr 3 2015 12:11:22
Writing library : libebml v1.3.1 + libmatroska v1.4.2
Video
ID : 1
Format : AVC
Format/Info : Advanced Video Codec
Format profile : High@L4.1
Format settings : CABAC / 9 Ref Frames
Format settings, CABAC : Yes
Format settings, Reference : 9 frames
Codec ID : V_MPEG4/ISO/AVC
Duration : 22 min 49 s
Bit rate : 1 600 kb/s
Width : 720 pixels
Height : 400 pixels
Display aspect ratio : 16:9
Frame rate mode : Constant
Frame rate : 25.000 FPS
Color space : YUV
Chroma subsampling : 4:2:0
Bit depth : 8 bits
Scan type : Progressive
Bits/(Pixel*Frame) : 0.222
Stream size : 256 MiB (87%)
Writing library : x264 core 146 r2538 121396c
Encoding settings : cabac=1 / ref=9 / deblock=1:-2:-1 / analyse=0x3:0x133 / me=umh / subme=9 / psy=1 / psy_rd=1.00:0.15 / mixed_ref=1 / me_range=32 / chroma_me=1 / trellis=2 / 8x8dct=1 / cqm=0 / deadzone=21,11 / fast_pskip=0 / chroma_qp_offset=-3 / threads=18 / lookahead_threads=3 / sliced_threads=0 / nr=0 / decimate=1 / interlaced=0 / bluray_compat=0 / constrained_intra=0 / bframes=9 / b_pyramid=2 / b_adapt=2 / b_bias=0 / direct=1 / weightb=1 / open_gop=0 / weightp=2 / keyint=250 / keyint_min=25 / scenecut=40 / intra_refresh=0 / rc=2pass / mbtree=0 / bitrate=1600 / ratetol=1.0 / qcomp=0.60 / qpmin=0 / qpmax=69 / qpstep=4 / cplxblur=20.0 / qblur=0.5 / ip_ratio=1.40 / pb_ratio=1.30 / aq=2:1.00
Default : Yes
Forced : No
Color range : Limited
Color primaries : BT.709
Transfer characteristics : BT.709
Matrix coefficients : BT.709
Audio
ID : 2
Format : AC-3
Format/Info : Audio Coding 3
Commercial name : Dolby Digital
Codec ID : A_AC3
Duration : 22 min 49 s
Bit rate mode : Constant
Bit rate : 192 kb/s
Channel(s) : 2 channels
Channel layout : L R
Sampling rate : 48.0 kHz
Frame rate : 31.250 FPS (1536 SPF)
Compression mode : Lossy
Stream size : 31.3 MiB (11%)
Service kind : Complete Main
Default : Yes
Forced : No

Внимание! Раздача ведётся путём добавления новых серий

Раздача ведётся путём добавления новых серий, при каждом добавлении создаётся новый торрент. Чтобы начать докачку новой серии, пользователям необходимо сделать следующее:
- Остановить скачивание.
- Удалить старый торрент у себя из клиента (старые серии удалять не надо).
- Скачать новый торрент и запустить его у себя в клиенте вместо старого, при этом указать клиенту путь в старую папку куда и должно происходить скачивание новых серий.
Ваш клиент при этом должен произвести хеширование (проверку) старой папки (если не производит сам - помогите ему сделать это), и будет докачивать только те серии которых у вас ещё нет. Старые серии при этом не удаляются, а продолжают раздаваться!
Релиз от:

Release was prepared by RG Files-x

[Profile] [PM]
Display posts:    
Reply to topic

Current time is: 01-Jul 11:49

All times are UTC + 3



You cannot post new topics in this forum
You cannot reply to topics in this forum
You cannot edit your posts in this forum
You cannot delete your posts in this forum
You cannot vote in polls in this forum
You cannot attach files in this forum
You cannot download files in this forum