Ева, рожай! [1-11 серии из 13] (2022) WEBRip-AVC от Generalfilm | КПК

Reply to topic
 
Author Message

GORGIK ®

Gender: Male

Longevity: 4 years

Posts: 1036

Location: СССР

Post 06-Oct-2022 09:16

[Quote]

Ева, рожай! Год выпуска: 2022
Жанр: Комедия
Выпущено: Россия, Кинокомпания АО "СТС" И ООО "Старт Студио"
Режиссер: Никита Грамматиков
В ролях: Елена Подкаминская, Алёна Хмельницкая, Галина Польских, Анатолий Белый, Дмитрий Чеботарёв, Сергей Епишев, Елизавета Мартинес Карденас, Наталья Ноздрина, Всеволод Болдин, Артём Ешкин, Павел Савинков, Вероника Волоха, Елена Валюшкина, Андрей Жилин, Анастасия Микульчина, Полина Пахомова (II), Лилия Фильченко, Николь Ниенти, Матвей Полевой, Полина Крикунова, Георгий Соскин, Юрий Бабанов
О фильме: Ева — талантливая преподавательница танцев, для которой главное в жизни — быть собой, а не следовать скучным правилам. Она независимая и самостоятельная женщина, которая проводит все свое время на работе, давно заменившей ей личную жизнь. Ева не замужем и не обременена детьми, а значит, как считают коллеги, может работать сверхурочно, подменяя очередную маму в декрете. Казалось, такая несправедливость могла продолжаться вечно. Но однажды Ева узнает, что «любовь всей ее жизни» женился и стал отцом. В этот непростой момент девушка понимает, что пора радикально менять и свою жизнь. Ева решает стать матерью во что бы то ни стало…

Качество: WEBRip | КПК
Видео: MPEG-4 AVC (x264), 640x320, ~500 kbps, 25.000 fps
Аудио: AAC LC, 48.0 KHz, 2 ch, 128 Kbps
Продолжительность: 11 x ~ 00:25:00
Перевод / Озвучка: Не требуется [Русский]
Cубтитры: нет

Скриншоты


MediaInfo

Complete name : F:\КИНО\Eva,Rozhai.S01.2022.WEBRip-AVC.KPK.GF\Eva,Rozhai.s01e01.2022.WEBRip-AVC.KPK.GF.mp4
Format : MPEG-4
Codec ID : M4V (isom/iso2/avc1)
File size : 113 MiB
Duration : 25 min 1 s
Overall bit rate mode : Variable
Overall bit rate : 634 kb/s
Writing application : Lavf53.19.0
Video
ID : 1
Format : AVC
Format/Info : Advanced Video Codec
Format profile : High@L4.1
Format settings, CABAC : Yes
Format settings, RefFrames : 8 frames
Codec ID : avc1
Codec ID/Info : Advanced Video Coding
Duration : 25 min 1 s
Bit rate : 500 kb/s
Width : 640 pixels
Height : 320 pixels
Display aspect ratio : 2.000
Frame rate mode : Constant
Frame rate : 25.000 FPS
Color space : YUV
Chroma subsampling : 4:2:0
Bit depth : 8 bits
Scan type : Progressive
Bits/(Pixel*Frame) : 0.098
Stream size : 89.5 MiB (79%)
Writing library : x264 core 148 r2638 7599210
Encoding settings : cabac=1 / ref=8 / deblock=1:-1:-1 / analyse=0x3:0x133 / me=umh / subme=10 / psy=1 / psy_rd=1.00:0.00 / mixed_ref=1 / me_range=24 / chroma_me=1 / trellis=2 / 8x8dct=1 / cqm=0 / deadzone=21,11 / fast_pskip=1 / chroma_qp_offset=-2 / threads=6 / lookahead_threads=1 / sliced_threads=0 / nr=0 / decimate=1 / interlaced=0 / bluray_compat=0 / constrained_intra=0 / bframes=8 / b_pyramid=2 / b_adapt=2 / b_bias=0 / direct=3 / weightb=1 / open_gop=0 / weightp=2 / keyint=250 / keyint_min=126 / scenecut=40 / intra_refresh=0 / rc_lookahead=40 / rc=2pass / mbtree=1 / bitrate=500 / ratetol=1.0 / qcomp=0.60 / qpmin=0 / qpmax=69 / qpstep=4 / cplxblur=20.0 / qblur=0.5 / ip_ratio=1.40 / aq=1:1.00
Menus : 3
Audio
ID : 2
Format : AAC
Format/Info : Advanced Audio Codec
Format profile : LC
Codec ID : 40
Duration : 25 min 1 s
Bit rate mode : Variable
Bit rate : 128 kb/s
Channel(s) : 2 channels
Channel positions : Front: L R
Sampling rate : 48.0 kHz
Frame rate : 46.875 FPS (1024 SPF)
Compression mode : Lossy
Stream size : 22.9 MiB (20%)
Default : Yes
Alternate group : 1
Menus : 3
Релиз от:


Last edited by GORGIK on 2022-11-23 16:49; edited 7 times in total
[Profile] [PM]

GORGIK ®

Gender: Male

Longevity: 4 years

Posts: 1036

Location: СССР

Post 13-Oct-2022 09:44 (after 7 days)

[Quote]

+ 11-я серия
[Profile] [PM]
Display posts:    
Reply to topic

Current time is: 27-Nov 04:12

All times are UTC + 3



You cannot post new topics in this forum
You cannot reply to topics in this forum
You cannot edit your posts in this forum
You cannot delete your posts in this forum
You cannot vote in polls in this forum
You cannot attach files in this forum
You cannot download files in this forum