Лэйт Найт Скул [1-8 серии из 8] (2022) WEB-DLRip-AVC от Generalfilm | КПК

Reply to topic
 
Author Message

GORGIK ®

Gender: Male

Longevity: 4 years

Posts: 1036

Location: СССР

Post 07-Nov-2022 10:10

[Quote]

Лэйт Найт Скул Год выпуска: 2022
Жанр: Драма
Выпущено: Россия, Кинокомпания "ID Production" совместно с "On Set Production"
Режиссер: Ника Яковлева
В ролях: Алексей Лукин, Мария Миронова мл., Артём Ткаченко, Павел Табаков, Иванка Осина-Фридман, Егор Мухин, Никита Плахотнюк, Алиса Тарасенко, Юрий Шелковников, Иван Чернов, Елизавета Мордашова, Кирилл Голомидов, Илья Федосенко, Данила Федосенко, Алиса Воробьева, Арина Жесткова, Фотис Келепурис, Анна Селиванова
О фильме: В сети регулярно появляется новое скандальное ток-шоу Late Night School, созданное группой старшеклассников. Проект существует на нелегальном положении и снимается в школьном спортивном зале. В каждом выпуске подростки обсуждают только самые насущные проблемы: отношения с учителями и родителями, буллинг, секс, гендерные стереотипы и многое другое. Количество просмотров растет, темы становятся все острее, и постепенно создатели «подсаживаются на иглу» хайпа, а значит - все чаще переходят границы разумного. Вместе с популярностью растут проблемы - теперь вместо замечаний в дневнике им грозит реальное отчисление и даже уголовное дело. Детские игры закончились, и самое время сделать осознанный, взрослый выбор между совестью и дешевым хайпом.

Качество: WEB-DLRip | КПК
Видео: MPEG-4 AVC (x264), 640x360, ~500 kbps, 25.000 fps
Аудио: AAC LC, 48.0 KHz, 2 ch, 128 Kbps
Продолжительность: 8 х ~ 00:25:00
Перевод / Озвучка: Не требуется [Русский]
Cубтитры: нет
Внимание! Присутствует ненормативная лексика

Скриншоты


MediaInfo

Complete name : F:\КИНО\Leit.Nait.Skul.S01.2022.WEB-DLRip-AVC.KPK.GF\Leit.Nait.Skul.s01e02.2022.WEB-DLRip-AVC.KPK.GF.mp4
Format : MPEG-4
Codec ID : M4V (isom/iso2/avc1)
File size : 116 MiB
Duration : 25 min 40 s
Overall bit rate mode : Variable
Overall bit rate : 633 kb/s
Writing application : Lavf53.19.0
Video
ID : 1
Format : AVC
Format/Info : Advanced Video Codec
Format profile : High@L4.1
Format settings, CABAC : Yes
Format settings, RefFrames : 8 frames
Codec ID : avc1
Codec ID/Info : Advanced Video Coding
Duration : 25 min 40 s
Bit rate : 500 kb/s
Width : 640 pixels
Height : 360 pixels
Display aspect ratio : 16:9
Frame rate mode : Constant
Frame rate : 25.000 FPS
Color space : YUV
Chroma subsampling : 4:2:0
Bit depth : 8 bits
Scan type : Progressive
Bits/(Pixel*Frame) : 0.087
Stream size : 91.8 MiB (79%)
Writing library : x264 core 148 r2638 7599210
Encoding settings : cabac=1 / ref=8 / deblock=1:-1:-1 / analyse=0x3:0x133 / me=umh / subme=10 / psy=1 / psy_rd=1.00:0.00 / mixed_ref=1 / me_range=24 / chroma_me=1 / trellis=2 / 8x8dct=1 / cqm=0 / deadzone=21,11 / fast_pskip=1 / chroma_qp_offset=-2 / threads=6 / lookahead_threads=1 / sliced_threads=0 / nr=0 / decimate=1 / interlaced=0 / bluray_compat=0 / constrained_intra=0 / bframes=8 / b_pyramid=2 / b_adapt=2 / b_bias=0 / direct=3 / weightb=1 / open_gop=0 / weightp=2 / keyint=250 / keyint_min=126 / scenecut=40 / intra_refresh=0 / rc_lookahead=40 / rc=2pass / mbtree=1 / bitrate=500 / ratetol=1.0 / qcomp=0.60 / qpmin=0 / qpmax=69 / qpstep=4 / cplxblur=20.0 / qblur=0.5 / ip_ratio=1.40 / aq=1:1.00
Menus : 3
Audio
ID : 2
Format : AAC
Format/Info : Advanced Audio Codec
Format profile : LC
Codec ID : 40
Duration : 25 min 40 s
Bit rate mode : Variable
Bit rate : 128 kb/s
Channel(s) : 2 channels
Channel positions : Front: L R
Sampling rate : 48.0 kHz
Frame rate : 46.875 FPS (1024 SPF)
Compression mode : Lossy
Stream size : 23.5 MiB (20%)
Default : Yes
Alternate group : 1
Menus : 3
Релиз от:


Last edited by GORGIK on 2022-11-23 16:44; edited 3 times in total
[Profile] [PM]

GORGIK ®

Gender: Male

Longevity: 4 years

Posts: 1036

Location: СССР

Post 13-Nov-2022 12:40 (after 6 days)

[Quote]

Весь сезон
[Profile] [PM]
Display posts:    
Reply to topic

Current time is: 27-Nov 05:32

All times are UTC + 3



You cannot post new topics in this forum
You cannot reply to topics in this forum
You cannot edit your posts in this forum
You cannot delete your posts in this forum
You cannot vote in polls in this forum
You cannot attach files in this forum
You cannot download files in this forum